FileTracker.PL - Darmowe polskie torrenty

Witaj drogi Towarzyszu!, jeżeli widzisz ten dymek to znaczy że nie jesteś jeszcze zarejestrowany/zalogowany. Kliknij by się zarejestrować . Rejestracja zajmie mniej niż 30 sekund, a dzięki niej zyskasz możliwość pobierania, komentowania oraz dodawania torrentów !
User:  Hasło:     



Kategorie


Detale Torrenta


Gonitwa - The Cup *2011* [DVDRip.x264-Złośnicaa] [Lektor PL]

S: 2L: 5P: 24
Dodał: Tracker:
Kondycja:Dodane:2017-01-31 01:40:26
Kategoria:Filmy X264 / H264  »  BiograficzneRozmiar:475.08 MB
Język:Lektor PL  Lektor PL------------------
Obserwuj:OBSERWUJ TORRENTAStaty:UAKTUALNIJ TRACKER
Download: Pobierz TorrentRaport:RAPORTUJ TORRENTA




produkcja: Australia
premiera: 13 października 2011 - Świat
gatunek: Biograficzny, Sportowy
reżyseria: Simon Wincer
scenariusz: Simon Wincer



Film opowiada prawdziwą historię australijskiego dżokeja Damiena Olivera, który traci brata Jasona, w tragicznym wypadku na torze wyścigowym, na kilka dni przed zawodami o puchar Melbourne 2002. Wydarzenie to potęguje przypuszczenia, że nad dżokejską rodziną ciąży klątwa. Wszystko dlatego, że 27 lat wcześniej w podobnych okolicznościach, zginął ojciec Damiena i Jasona. Tymczasem pogrążony w żałobie Damien musi przygotować się do startu w zawodach.



Brendan Gleeson ... Dermot Weld
Alice Parkinson ... Jenny
Daniel MacPherson ... Jason Oliver
Jodi Gordon ... Trish Oliver





Video
ID : 1
Format : AVC
Format/INFO : Advanced Video Codec
Format profile : [email protected]
Format settings, CABAC : Yes
Format settings, ReFrames : 4 frames
Codec ID : avc1
Codec ID/INFO : Advanced Video Coding
Duration : 1 h 41 min
Bit rate : 478 kb/s
Width : 624 pixels
Height : 256 pixels
Display aspect ratio : 2.40:1
Frame rate mode : Constant
Frame rate : 30.000 FPS
Color space : YUV
Chroma subsampling : 4:2:0
Bit depth : 8 bits
Scan type : Progressive
Bits/(Pixel*Frame) : 0.100
Stream size : 348 MiB (73%)
Writing library : x264 core 118

Audio
ID : 2
Format : AAC
Format/INFO : Advanced Audio Codec
Format profile : LC
Codec ID : 40
Duration : 1 h 41 min
Bit rate mode : Variable
Bit rate : 165 kb/s
Maximum bit rate : 256 kb/s
Channel(s) : 2 channels
Channel positions : Front: L R
Sampling rate : 48.0 kHz
Frame rate : 46.875 FPS (1024 spf)
Compression mode : Lossy
Stream size : 120 MiB (25%)
Default : Yes

====================================================

PODOBNE TORRENTY
Gonitwa - The Cup *2011* [DVBRip.XviD-Złośnicaa] [Lektor PL]	Apollo 18 *2011* [DVDRip.x264-Złośnicaa] [Lektor PL] Atlantis Down *2011* [DVDRip.x264-Złośnicaa] [Lektor PL] Moneyball *2011* [DVDRip.x264-Złośnicaa] [Lektor PL] Ksiądz - Priest *2011* [DVDRip.x264-Złośnicaa] [Lektor PL] Strefa Q - Area Q *2011* [DVDRip.x264-Złośnicaa] [Lektor PL]
Szczegóły torrenta
TRACKER
Tracker Podstawowy: http://tracker.filetracker.pl:8089/announce

Multitrackery:

http://tracker.filetracker.pl:8089/announce
http://pow7.com:80/announce
udp://tracker.leechers-paradise.org:6969/announce
udp://shadowshq.eddie4.nl:6969/announce
udp://tracker.opentrackr.org:1337/announce
udp://tracker.openbittorrent.com:80/announce
udp://tracker.leechers-paradise.org:6969/announce

UAKTUALNIENIE
31/01/2017 20:29:45 (Jeśeli nie widac seeda kliknij na [uaktualnij] by odswieżyć statystyki).
[Lub sprawdź programem do pobierania torrentów, ponieważ niektóre trackery nie wyświetlają statystyk]
5 pliki
 
KOMENTARZE


Brak komentarzy...

DODAJ KOMENTARZ

Zaloguj się aby dodawać komentarze !!!



Wstecz








WRÓĆ NA GÓRĘ