FileTracker.PL - Darmowe polskie torrenty

Witaj drogi Towarzyszu!, jeżeli widzisz ten dymek to znaczy że nie jesteś jeszcze zarejestrowany/zalogowany. Kliknij by się zarejestrować . Rejestracja zajmie mniej niż 30 sekund, a dzięki niej zyskasz możliwość pobierania, komentowania oraz dodawania torrentów !
User:  Hasło:     



Kategorie


Detale Torrenta


Fighter - The Fighter *2010* [DVDRip.x264-Złośnicaa] [Lektor PL]

S: 20L: 17P: 69
Dodał: Tracker:
Kondycja:Dodane:2017-01-31 01:33:08
Kategoria:Filmy X264 / H264  »  BiograficzneRozmiar:646.23 MB
Język:Lektor PL  Lektor PL------------------
Obserwuj:OBSERWUJ TORRENTAStaty:UAKTUALNIJ TRACKER
Download: Pobierz TorrentRaport:RAPORTUJ TORRENTA




produkcja: USA
premiera: 12 października 2010 - Świat
gatunek: Biograficzny, Sportowy
reżyseria: David O. Russell
scenariusz: Scott Silver



Micky Ward jest bokserem wagi półśredniej, żyjącym z zamiatania ulic. Przegrał kilka ostatnich walk, ma problemy z byłą żoną, z matką-despotką (Melissa Leo), z gromadą rozhisteryzowanych sióstr, a przede wszystkim z Dicky’m bratem i trenerem w jednej osobie. Kiedyś on także był utalentowanym bokserem, ma na swoim koncie spektakularny sukces, ale przez uzależnienie od narkotyków stacza się na samo dno. Micky ma dosyć porażek na każdym polu. Spotkanie z barmanką Charlene staje się punktem zwrotnym w jego życiu. Mając kogoś, kto go wspiera, odnajduje siłę do walki o mistrzowski tytuł.



Mark Wahlberg ... Micky Ward
Christian Bale ... Dicky Eklund
Amy Adams ... Charlene Fleming
Melissa Leo ... Alice Ward





Video
ID : 1
Format : AVC
Format/INFO : Advanced Video Codec
Format profile : [email protected]
Format settings, CABAC : Yes
Format settings, ReFrames : 4 frames
Codec ID : avc1
Codec ID/INFO : Advanced Video Coding
Duration : 1 h 55 min
Bit rate : 607 kb/s
Width : 720 pixels
Height : 304 pixels
Display aspect ratio : 2.35:1
Frame rate mode : Constant
Frame rate : 30.000 FPS
Color space : YUV
Chroma subsampling : 4:2:0
Bit depth : 8 bits
Scan type : Progressive
Bits/(Pixel*Frame) : 0.093
Stream size : 502 MiB (78%)
Writing library : x264 core 132

Audio
ID : 2
Format : AAC
Format/INFO : Advanced Audio Codec
Format profile : LC
Codec ID : 40
Duration : 1 h 55 min
Bit rate mode : Variable
Bit rate : 165 kb/s
Maximum bit rate : 256 kb/s
Channel(s) : 2 channels
Channel positions : Front: L R
Sampling rate : 48.0 kHz
Frame rate : 46.875 FPS (1024 spf)
Compression mode : Lossy
Stream size : 137 MiB (21%)
Default : Yes

====================================================

PODOBNE TORRENTY
Fighter - The Fighter *2010* [DVDRip.XviD] [Lektor PL] Fighter / The Fighter (2010) [720p] [BRRip] [XviD] [AC3-LTN] [Lektor PL] Fighter / The Fighter (2010) [BRRip] [XviD-GR4PE] [Lektor PL] Fighter - The Fighter *2010* [BRRip.XviD-B89] [Lektor PL] Fighter: kochaj i walcz - Fighter (2007) [DVDRip.XviD] [Lektor PL] Street Fighter: Legenda Chun-Li - Street Fighter: The Legend of Chun-Li *2009* [DVDRip.XviD] [Lektor PL] [DYZIO]
Szczegóły torrenta
TRACKER
Tracker Podstawowy: http://tracker.filetracker.pl:8089/announce

Multitrackery:

http://tracker.filetracker.pl:8089/announce
http://pow7.com:80/announce
udp://tracker.leechers-paradise.org:6969/announce
udp://shadowshq.eddie4.nl:6969/announce
udp://tracker.opentrackr.org:1337/announce
udp://tracker.openbittorrent.com:80/announce
udp://tracker.leechers-paradise.org:6969/announce

UAKTUALNIENIE
17/09/2020 23:44:49 (Jeśeli nie widac seeda kliknij na [uaktualnij] by odswieżyć statystyki).
[Lub sprawdź programem do pobierania torrentów, ponieważ niektóre trackery nie wyświetlają statystyk]
5 pliki
 
KOMENTARZE


Brak komentarzy...

DODAJ KOMENTARZ

Zaloguj się aby dodawać komentarze !!!



Wstecz








WRÓĆ NA GÓRĘ