FileTracker.PL - Darmowe polskie torrenty

Witaj drogi Towarzyszu!, jeżeli widzisz ten dymek to znaczy że nie jesteś jeszcze zarejestrowany/zalogowany. Kliknij by się zarejestrować . Rejestracja zajmie mniej niż 30 sekund, a dzięki niej zyskasz możliwość pobierania, komentowania oraz dodawania torrentów !
User:  Hasło:     



Kategorie


Detale Torrenta


Ali *2001* [DVDRip.x264-Złośnicaa] [Lektor PL]

S: 12L: 2P: 45
Dodał: Tracker:
Kondycja:Dodane:2017-01-29 19:03:08
Kategoria:Filmy X264 / H264  »  BiograficzneRozmiar:639.83 MB
Język:Lektor PL  Lektor PL------------------
Obserwuj:OBSERWUJ TORRENTAStaty:UAKTUALNIJ TRACKER
Download: Pobierz TorrentRaport:RAPORTUJ TORRENTA




produkcja: USA
gatunek: Biograficzny, Sportowy
premiera: 11 grudnia 2001 - Świat
reżyseria: Michael Mann
scenariusz:. Stephen J. Rivele



Ali to epicki dramat o najbardziej kontrowersyjnej międzynarodowej gwieździe w historii sportu. Przez jednych kochany, przez innych obrzucany obelgami, Cassius Clay , to człowiek, którego siła sięgała daleko po za bokserski ring. Kiedy porzucił swoje nazwisko, stając się Muhammedem Alim, został także jedną z najbardziej oczernianych gwiazd sportu. Ale on walczył o więcej niż tylko tytuł mistrzowski, walczył o szacunek dla ludzi wszystkich ras i narodowości. Walczył przeciwko rządowi Stanów Zjednoczonych, nie chciał jechać do Wietnamu. Walczył o prawo używania swojego imienia i wywalczył je własnymi pięściami, dzięki wierze w Boga i samego siebie.



Will Smith ... Muhammad Ali
Jamie Foxx ... Drew "Bundini" Brown
Jon Voight ... Howard Cosell
Mario Van Peebles ... Malcolm X





Video
ID : 1
Format : AVC
Format/INFO : Advanced Video Codec
Format profile : [email protected]
Format settings, CABAC : Yes
Format settings, ReFrames : 4 frames
Codec ID : avc1
Codec ID/INFO : Advanced Video Coding
Duration : 2 h 30 min
Bit rate : 420 kb/s
Width : 640 pixels
Height : 272 pixels
Display aspect ratio : 2.35:1
Frame rate mode : Constant
Frame rate : 30.000 FPS
Color space : YUV
Chroma subsampling : 4:2:0
Bit depth : 8 bits
Scan type : Progressive
Bits/(Pixel*Frame) : 0.080
Stream size : 452 MiB (71%)
Writing library : x264 core 118

Audio
ID : 2
Format : AAC
Format/INFO : Advanced Audio Codec
Format profile : LC
Codec ID : 40
Duration : 2 h 30 min
Bit rate mode : Variable
Bit rate : 165 kb/s
Maximum bit rate : 256 kb/s
Channel(s) : 2 channels
Channel positions : Front: L R
Sampling rate : 48.0 kHz
Frame rate : 46.875 FPS (1024 spf)
Compression mode : Lossy
Stream size : 178 MiB (28%)
Default : Yes

====================================================

PODOBNE TORRENTY
2001: Odyseja Kosmiczna - 2001: A Space Odyssey *1968* [DVDRip.x264-Złośnicaa] [Lektor PL]  Changi *2001* [miniserial]DVDRip.x264-Złośnicaa] [Lektor PL] Droga Do Wolności - To End All Wars *2001* [DVDRip.x264-Złośnicaa] [Lektor PL] Szpiedzy Tacy Jak Oni - All The Queen's Men *2001* [DVDRip.x264-Złośnicaa] [Lektor PL] Szara Strefa - The Grey Zone *2001* [DVDRip.x264-Złośnicaa] [Lektor PL] Wróg U Bram - Enemy At The Gates *2001* [DVDRip.x264-Złośnicaa] [Lektor PL]
Szczegóły torrenta
TRACKER
Tracker Podstawowy: http://tracker.filetracker.pl:8089/announce

Multitrackery:

http://tracker.filetracker.pl:8089/announce
http://pow7.com:80/announce
udp://tracker.leechers-paradise.org:6969/announce
udp://shadowshq.eddie4.nl:6969/announce
udp://tracker.opentrackr.org:1337/announce
udp://tracker.openbittorrent.com:80/announce
udp://tracker.leechers-paradise.org:6969/announce

UAKTUALNIENIE
04/02/2017 19:20:07 (Jeśeli nie widac seeda kliknij na [uaktualnij] by odswieżyć statystyki).
[Lub sprawdź programem do pobierania torrentów, ponieważ niektóre trackery nie wyświetlają statystyk]
5 pliki
 
KOMENTARZE


Brak komentarzy...

DODAJ KOMENTARZ

Zaloguj się aby dodawać komentarze !!!



Wstecz








WRÓĆ NA GÓRĘ