FileTracker.PL - Darmowe polskie torrenty

Witaj drogi Towarzyszu!, jeżeli widzisz ten dymek to znaczy że nie jesteś jeszcze zarejestrowany/zalogowany. Kliknij by się zarejestrować . Rejestracja zajmie mniej niż 30 sekund, a dzięki niej zyskasz możliwość pobierania, komentowania oraz dodawania torrentów !
User:  Hasło:     



Kategorie


Detale Torrenta


42 - Prawdziwa Historia Amerykańskiej Legendy - 42 2013 [DVDRip.x264-Złośnicaa] [Lektor PL]

S: 15L: 13P: 42
Dodał: Tracker:
Kondycja:Dodane:2017-01-29 18:48:42
Kategoria:Filmy X264 / H264  »  BiograficzneRozmiar:573.23 MB
Język:Lektor PL  Lektor PL------------------
Obserwuj:OBSERWUJ TORRENTAStaty:UAKTUALNIJ TRACKER
Download: Pobierz TorrentRaport:RAPORTUJ TORRENTA




produkcja: USA
premiera: 10 kwietnia 2013 - Świat
gatunek: Biograficzny, Sportowy
reżyseria: Brian Helgeland
scenariusz: Brian Helgeland



Historia Jackiego Robinsona, pierwszego afroamerykańskiego baseballisty, który zagrał w amerykańskiej Major League najważniejszej amerykańskiej lidze baseballu. 42-Prawdziwa historia amerykańskiej legendy opowiada o niezwykłej, naznaczonej cierpieniem karierze jednego z najlepszych zawodników świata. Dyskryminacja rasowa i liczne kontuzje, a także historyczna chwila podpisania kontraktu z drużyną Brooklyn Dodgers, to tylko niektóre wątki tego poruszającego obrazu.



Sean Nix ... Jake Pitler, Trener Dodgersów
Harrison Ford ... Branch Rickey
Chadwick Boseman ... Jackie Robinson
Alan Tudyk ... Ben Chapman





Video
ID : 1
Format : AVC
Format/INFO : Advanced Video Codec
Format profile : [email protected]
Format settings, CABAC : Yes
Format settings, ReFrames : 4 frames
Codec ID : avc1
Codec ID/INFO : Advanced Video Coding
Duration : 2 h 7 min
Bit rate : 456 kb/s
Width : 608 pixels
Height : 256 pixels
Display aspect ratio : 2.40:1
Frame rate mode : Constant
Frame rate : 30.000 FPS
Color space : YUV
Chroma subsampling : 4:2:0
Bit depth : 8 bits
Scan type : Progressive
Bits/(Pixel*Frame) : 0.098
Stream size : 414 MiB (72%)
Writing library : x264 core 118

Audio
ID : 2
Format : AAC
Format/INFO : Advanced Audio Codec
Format profile : LC
Codec ID : 40
Duration : 2 h 7 min
Duration_LastFrame : -19 ms
Bit rate mode : Variable
Bit rate : 165 kb/s
Maximum bit rate : 256 kb/s
Channel(s) : 2 channels
Channel positions : Front: L R
Sampling rate : 48.0 kHz
Frame rate : 46.875 FPS (1024 spf)
Compression mode : Lossy
Stream size : 150 MiB (26%)
Default : Yes

====================================================

PODOBNE TORRENTY
42 – Prawdziwa historia amerykańskiej legendy - 42    (2013) [DVDRip.[XviD] [Lektor PL] 42 – Prawdziwa historia amerykańskiej legendy - 42 (2013) [DVDRip.XviD] [Lektor PL] 42 – Prawdziwa historia amerykańskiej legendy - 42 (2013) [BRRip.XviD]-GR4PE [Lektor PL] 42 – Prawdziwa historia amerykańskiej legendy - 42 (2013) [480p] [BRRip.XviD-LTN] [AC-3] [Lektor PL] Legendy Ringu - Grudge Match *2013* [DVDRip.x264-Złośnicaa] [Lektor PL] PRAWDZIWA HISTORIA [2005] [DVDRIP] [AC3] [X264] [LEKTOR PL]
Szczegóły torrenta
TRACKER
Tracker Podstawowy: http://tracker.filetracker.pl:8089/announce

Multitrackery:

http://tracker.filetracker.pl:8089/announce
http://pow7.com:80/announce
udp://tracker.leechers-paradise.org:6969/announce
udp://shadowshq.eddie4.nl:6969/announce
udp://tracker.opentrackr.org:1337/announce
udp://tracker.openbittorrent.com:80/announce
udp://tracker.leechers-paradise.org:6969/announce

UAKTUALNIENIE
11/10/2017 19:43:47 (Jeśeli nie widac seeda kliknij na [uaktualnij] by odswieżyć statystyki).
[Lub sprawdź programem do pobierania torrentów, ponieważ niektóre trackery nie wyświetlają statystyk]
5 pliki
 
KOMENTARZE


Brak komentarzy...

DODAJ KOMENTARZ

Zaloguj się aby dodawać komentarze !!!



Wstecz








WRÓĆ NA GÓRĘ