FileTracker.PL - Darmowe polskie torrenty

Witaj drogi Towarzyszu!, jeżeli widzisz ten dymek to znaczy że nie jesteś jeszcze zarejestrowany/zalogowany. Kliknij by się zarejestrować . Rejestracja zajmie mniej niż 30 sekund, a dzięki niej zyskasz możliwość pobierania, komentowania oraz dodawania torrentów !
User:  Hasło:     



Kategorie


Detale Torrenta


Skazani Na Siebie - Good For Nothing *2011* [DVDRip.x264-Złośnicaa] [Lektor PL]

S: 0L: 0P: 56
Dodał: Tracker:
Kondycja:Dodane:2017-01-25 01:41:40
Kategoria:Filmy X264 / H264  »  WesternRozmiar:325.05 MB
Język:Lektor PL  Lektor PL------------------
Obserwuj:OBSERWUJ TORRENTAStaty:UAKTUALNIJ TRACKER
Download: Pobierz TorrentRaport:RAPORTUJ TORRENTA




produkcja: Nowa Zelandia
premiera: 29 stycznia 2011 - Świat
gatunek: Western
reżyseria: Mike Wallis
scenariusz: Mike Wallis



Jest to pierwszy western w kinematografii nowozelandzkiej. W sposób zabawny i ironiczny ukazuje rozterki emocjonalne wyjętego spod prawa mężczyzny, w którym rozwija się silne uczucie do porwanej pięknej Isabelli. Uwiedzenie jej kończy się jednak fiaskiem, gdyż w kulminacyjnym momencie nie staje on na wysokości zadania. Zaskoczony i zmieszany bohater, nie mogąc pogodzić się ze swoją impotencją, wyrusza z Isabellą w podróż, by znaleźć rozwiązanie swojego problemu.



Cohen Holloway ... Mężczyzna
Inge Rademeyer ... Isabella Montgomery
Jon Pheloung ... Szeryf
Richard Thompson ... Will





Video
ID : 1
Format : AVC
Format/INFO : Advanced Video Codec
Format profile : [email protected]
Format settings, CABAC : Yes
Format settings, ReFrames : 4 frames
Codec ID : avc1
Codec ID/INFO : Advanced Video Coding
Duration : 1 h 27 min
Bit rate : 342 kb/s
Width : 640 pixels
Height : 272 pixels
Display aspect ratio : 2.35:1
Frame rate mode : Constant
Frame rate : 30.000 FPS
Color space : YUV
Chroma subsampling : 4:2:0
Bit depth : 8 bits
Scan type : Progressive
Bits/(Pixel*Frame) : 0.065
Stream size : 215 MiB (66%)
Writing library : x264 core 118

Audio
ID : 2
Format : AAC
Format/INFO : Advanced Audio Codec
Format profile : LC
Codec ID : 40
Duration : 1 h 27 min
Duration_LastFrame : -19 ms
Bit rate mode : Variable
Bit rate : 165 kb/s
Maximum bit rate : 256 kb/s
Channel(s) : 2 channels
Channel positions : Front: L R
Sampling rate : 48.0 kHz
Frame rate : 46.875 FPS (1024 spf)
Compression mode : Lossy
Stream size : 104 MiB (32%)
Default : Yes

====================================================

PODOBNE TORRENTY
Skazani na siebie - Good for Nothing *2011* [BRRip.XviD-NoNaNo] [Lektor PL] Skazani na siebie - Stuck on You (2003) [DVDRip.XviD] [Lektor PL] Skazani na siebie - Stuck on You *2003* [DVDRip] [XviD-CHiMER] [Lektor PL] Skazani na siebie / Stuck on You (2003) [720p] [MULTI] [BluRay] [x264] [AC3-LTN] [Lektor PL] Skazani na siebie / Stuck on You (2003) [720p] [BRRip] [XviD] [AC3-D14] [Lektor PL] Skazani na siebie / Stuck on You (2003) [720p] [BRRip] [XviD] [AC3-LTN] [Lektor PL]
Szczegóły torrenta
TRACKER
Tracker Podstawowy: http://tracker.filetracker.pl:8089/announce

Multitrackery:

http://tracker.filetracker.pl:8089/announce
http://pow7.com:80/announce
udp://tracker.leechers-paradise.org:6969/announce
udp://shadowshq.eddie4.nl:6969/announce
http://tracker.devil-torrents.pl/announce
udp://tracker.opentrackr.org:1337/announce
udp://tracker.openbittorrent.com:80/announce
udp://tracker.leechers-paradise.org:6969/announce

UAKTUALNIENIE
27/04/2017 00:07:28 (Jeśeli nie widac seeda kliknij na [uaktualnij] by odswieżyć statystyki).
[Lub sprawdź programem do pobierania torrentów, ponieważ niektóre trackery nie wyświetlają statystyk]
5 pliki
 
KOMENTARZE


Brak komentarzy...

DODAJ KOMENTARZ

Zaloguj się aby dodawać komentarze !!!



Wstecz








WRÓĆ NA GÓRĘ