FileTracker.PL - Darmowe polskie torrenty

Witaj drogi Towarzyszu!, jeżeli widzisz ten dymek to znaczy że nie jesteś jeszcze zarejestrowany/zalogowany. Kliknij by się zarejestrować . Rejestracja zajmie mniej niż 30 sekund, a dzięki niej zyskasz możliwość pobierania, komentowania oraz dodawania torrentów !
User:  Hasło:     



Kategorie


Detale Torrenta


Jak Dogonić Szczęście - Hector And The Search For Happiness *2014* [DVDRip.RMVB-Złośnicaa] [Lektor PL]

S: 0L: 0P: 79
Dodał: Tracker:
Kondycja:Dodane:2016-12-01 12:06:17
Kategoria:Filmy RMVB  »  KomedieRozmiar:391.95 MB
Język:Lektor PL  Lektor PL------------------
Obserwuj:OBSERWUJ TORRENTAStaty:UAKTUALNIJ TRACKER
Download: Pobierz TorrentRaport:RAPORTUJ TORRENTA




produkcja: Kanada, Niemcy, RPA, Wielka Brytania
premiera: 14 sierpnia 2014 - Świat
gatunek: Komedia
reżyseria: Peter Chelsom
scenariusz: Peter Chelsom, Tinker Lindsay



Hector jest psychiatrą. Praca przynosi mu coraz mniej satysfakcji, gdyż nie potrafi sprawić, aby jego pacjenci poczuli się szczęśliwi. Pewnego dnia porzuca wygodne życie i wyrusza w samotną podróż w poszukiwaniu prawdziwego szczęścia. Hector zwiedzi cały świat, od Paryża, przez Chiny, Afrykę aż do Stanów Zjednoczonych, a jego podróż będzie pełna kolorów, egzotyki i niebezpieczeństw.



Simon Pegg ... Hector
Toni Collette ... Agnes
Rosamund Pike ... Clara
Jean Reno ... Diego Baresco





Video
ID : 1
Format : RealVideo 4
Codec ID : RV40
Codec ID/INFO : Based on AVC (H.264), Real Player 9
Duration : 1h 59mn
Bit rate : 382 Kbps
Width : 720 pixels
Height : 304 pixels
Display aspect ratio : 2.35:1
Frame rate : 23.976 fps
Bits/(Pixel*Frame) : 0.073
Stream size : 326 MiB (83%)

Audio
ID : 0
Format : Cooker
Codec ID : cook
Codec ID/INFO : Based on G.722.1, Real Player 6
Duration : 1h 59mn
Bit rate : 64.1 Kbps
Channel count : 2 channels
Sampling rate : 44.1 KHz
Bit depth : 16 bits
Stream size : 54.8 MiB (14%)



====================================================

PODOBNE TORRENTY
Jak dogonić szczęście - Hector and the Search for Happiness *2014* [BRRip.XviD-KiT] [Lektor PL] Jak dogonić szczęście - Hector and the Search for Happiness (2014) [BRRip] [XViD-J25] [LEKTOR PL] [Lukario007] Jak dogonić szczęście / Hector and the Search for Happiness (2014) [720p] [BluRay] [x264] [AC3-KiT] [Lektor PL] Jak dogonić szczęście - Hector and the Search for Happiness *2014* [1080p.BrRip.XviD.DD5.1-MAXX] [Lektor PL] Jak dogonić szczęście - Hector and the Search for Happiness *2014* [720p] [BRRip] [XviD-dabrjarek] [AC3] [Lektor PL] Jak dogonić szczęście - Hector and the Search for Happiness *2014* [BRRip.XviD-KiT] [Napisy PL]
Szczegóły torrenta
TRACKER
Tracker Podstawowy: http://tracker.filetracker.pl:8089/announce

Multitrackery:

http://tracker.filetracker.pl:8089/announce
http://pow7.com:80/announce
udp://tracker.leechers-paradise.org:6969/announce
udp://shadowshq.eddie4.nl:6969/announce
http://tracker.devil-torrents.pl/announce
udp://tracker.opentrackr.org:1337/announce
udp://tracker.openbittorrent.com:80/announce
udp://tracker.leechers-paradise.org:6969/announce

UAKTUALNIENIE
20/03/2019 21:00:39 (Jeśeli nie widac seeda kliknij na [uaktualnij] by odswieżyć statystyki).
[Lub sprawdź programem do pobierania torrentów, ponieważ niektóre trackery nie wyświetlają statystyk]
5 pliki
 
KOMENTARZE


Brak komentarzy...

DODAJ KOMENTARZ

Zaloguj się aby dodawać komentarze !!!



Wstecz








WRÓĆ NA GÓRĘ