FileTracker.PL - Darmowe polskie torrenty

Witaj drogi Towarzyszu!, jeżeli widzisz ten dymek to znaczy że nie jesteś jeszcze zarejestrowany/zalogowany. Kliknij by się zarejestrować . Rejestracja zajmie mniej niż 30 sekund, a dzięki niej zyskasz możliwość pobierania, komentowania oraz dodawania torrentów !
User:  Hasło:     



Kategorie


Detale Torrenta


Strefa Q - Area Q *2011* [DVDRip.x264-Złośnicaa] [Lektor PL]

S: 0L: 0P: 96
Dodał: Tracker:
Kondycja:Dodane:2016-11-11 13:58:23
Kategoria:Filmy X264 / H264  »  Sci-FiRozmiar:391.55 MB
Język:Lektor PL  Lektor PL------------------
Obserwuj:OBSERWUJ TORRENTAStaty:UAKTUALNIJ TRACKER
Download: Pobierz TorrentRaport:RAPORTUJ TORRENTA




reżyseria: Gerson Sanginitto
scenariusz: Julia Camara, Gerson Sanginitto
gatunek: Sci-Fi
produkcja: Brazylia, USA
premiera: 22 października 2011 - Świat



Dziennikarz śledczy, Thomas Mathews, zostaje wysłany na specjalną misję do Brazylii. Celem tej wyprawy jest wyjaśnienie okoliczności tajemniczego wydarzenia, które miało miejsce w tzw. "Strefie Q". Thomas nie zdaje sobie nawet sprawy z jak wielkim odkryciem przyjdzie mu się zmierzyć i jakich niesamowitych zjawisk będzie świadkiem.



Isaiah Washington ... Thomas Mathews
Ronnie Gene Blevins ... Mąż z kamerą
Tania Khalil ... Valquiria
Leslie Lewis Sword ... Carol Matthews





Video
ID : 1
Format : AVC
Format/INFO : Advanced Video Codec
Format profile : High@L2.1
Format settings, CABAC : Yes
Format settings, ReFrames : 4 frames
Codec ID : avc1
Codec ID/INFO : Advanced Video Coding
Duration : 1 h 48 min
Bit rate : 329 kb/s
Width : 608 pixels
Height : 256 pixels
Display aspect ratio : 2.40:1
Frame rate mode : Constant
Frame rate : 30.000 FPS
Color space : YUV
Chroma subsampling : 4:2:0
Bit depth : 8 bits
Scan type : Progressive
Bits/(Pixel*Frame) : 0.071
Stream size : 256 MiB (65%)
Writing library : x264 core 118

Audio
ID : 2
Format : AAC
Format/INFO : Advanced Audio Codec
Format profile : LC
Codec ID : 40
Duration : 1 h 48 min
Bit rate mode : Variable
Bit rate : 165 kb/s
Maximum bit rate : 256 kb/s
Channel(s) : 2 channels
Channel positions : Front: L R
Sampling rate : 48.0 kHz
Frame rate : 46.875 FPS (1024 spf)
Compression mode : Lossy
Stream size : 128 MiB (33%)
Default : Yes

====================================================

PODOBNE TORRENTY
Strefa Q / Area Q. (2011) [DVDRip.XviD] [Lektor PL] Szara Strefa - The Grey Zone *2001* [DVDRip.x264-Złośnicaa] [Lektor PL] Zielona Strefa - Green Zone *2010* [DVDRip.x264-Złośnicaa] [Lektor PL] Strefa Bezpieczeństwa - Joint Security Area *2000* [DVDRip.XviD] [Napisy PL] Strefa Bezpieczeństwa - Joint Security Area *2000* [DVDRip.XviD] [Napisy PL] [DarkAngel] Strefa Nagości - Nude Area *2014* [WEB-DL] [XviD-KRT] [Lektor PL]
Szczegóły torrenta
TRACKER
Tracker Podstawowy: http://tracker.filetracker.pl:8089/announce

Multitrackery:

http://tracker.filetracker.pl:8089/announce
http://pow7.com:80/announce
http://pow7.com/announce
udp://tracker.leechers-paradise.org:6969/announce
udp://shadowshq.eddie4.nl:6969/announce
udp://9.rarbg.com:2710/announce
http://tracker.devil-torrents.pl/announce
udp://tracker.opentrackr.org:1337/announce
udp://tracker.openbittorrent.com:80/announce
udp://tracker.leechers-paradise.org:6969/announce
udp://9.rarbg.me:2710/announce

UAKTUALNIENIE
16/05/2020 21:47:59 (Jeśeli nie widac seeda kliknij na [uaktualnij] by odswieżyć statystyki).
[Lub sprawdź programem do pobierania torrentów, ponieważ niektóre trackery nie wyświetlają statystyk]
5 pliki
 
KOMENTARZE


Brak komentarzy...

DODAJ KOMENTARZ

Zaloguj się aby dodawać komentarze !!!



Wstecz








WRÓĆ NA GÓRĘ