FileTracker.PL - Darmowe polskie torrenty

Witaj drogi Towarzyszu!, jeżeli widzisz ten dymek to znaczy że nie jesteś jeszcze zarejestrowany/zalogowany. Kliknij by się zarejestrować . Rejestracja zajmie mniej niż 30 sekund, a dzięki niej zyskasz możliwość pobierania, komentowania oraz dodawania torrentów !
User:  Hasło:     



Kategorie


Detale Torrenta


2001: Odyseja Kosmiczna - 2001: A Space Odyssey *1968* [DVDRip.x264-Złośnicaa] [Lektor PL]

S: 0L: 0P: 35
Dodał: Tracker:
Kondycja:Dodane:2016-11-01 11:01:09
Kategoria:Filmy X264 / H264  »  Sci-FiRozmiar:450.14 MB
Język:Lektor PL  Lektor PL------------------
Obserwuj:OBSERWUJ TORRENTAStaty:UAKTUALNIJ TRACKER
Download: Pobierz TorrentRaport:RAPORTUJ TORRENTA




produkcja: USA,Wielka Brytania
premiera: 2 kwietnia 1968 - Świat
gatunek: Sci-Fi
reżyseria: Stanley Kubrick
scenariusz: Arthur C. Clarke, Stanley Kubrick



Na początku XXI wieku badacze dokonują ważnego odkrycia na powierzchni Księżyca. Odnajdują tajemniczy monolit, który emituje sygnał skierowany w stronę Jowisza. Pragnienie zgłębiania tajemnic wszechświata popycha ludzkość do zrobienia kolejnego kroku. Na Jowisz zostaje wysłany statek o nazwie Discovery. Jego załoga składa się z wybitnych badaczy i astronautów, którzy mają do dyspozycji najnowocześniejszy sprzęt i zamierzają przysłużyć się nauce. Podczas lotu jednakże dochodzi do poważnej awarii. Okazuje się, że dotąd niezawodny komputer pokładowy HAL 9000, ma inne plany niż ludzcy członkowie załogi. David Bowman i Frank Poole zmuszeni są walczyć o przetrwanie swoje i pogrążonych w hibernacji kolegów.



Keir Dullea ... Dr David Bowman
Gary Lockwood ... Dr Frank Poole
William Sylvester ... Dr Heywood R. Floyd
Daniel Richter ... Obserwator księżyca





Video
ID : 1
Format : AVC
Format/INFO : Advanced Video Codec
Format profile : High@L3
Format settings, CABAC : Yes
Format settings, ReFrames : 4 frames
Codec ID : avc1
Codec ID/INFO : Advanced Video Coding
Duration : 2 h 22 min
Bit rate : 266 kb/s
Width : 640 pixels
Height : 272 pixels
Display aspect ratio : 2.35:1
Frame rate mode : Constant
Frame rate : 30.000 FPS
Color space : YUV
Chroma subsampling : 4:2:0
Bit depth : 8 bits
Scan type : Progressive
Bits/(Pixel*Frame) : 0.051
Stream size : 271 MiB (60%)
Writing library : x264 core 132

Audio
ID : 2
Format : AAC
Format/INFO : Advanced Audio Codec
Format profile : LC
Codec ID : 40
Duration : 2 h 22 min
Bit rate mode : Variable
Bit rate : 165 kb/s
Maximum bit rate : 256 kb/s
Channel(s) : 2 channels
Channel positions : Front: L R
Sampling rate : 48.0 kHz
Frame rate : 46.875 FPS (1024 spf)
Compression mode : Lossy
Stream size : 169 MiB (38%)
Default : Yes

====================================================

PODOBNE TORRENTY
2001: Odyseja kosmiczna - 2001: A Space Odyssey *1968* [DVDRip.XviD] [Lektor PL] [DYZIO] 2001: Odyseja kosmiczna - 2001: A Space Odyssey *1968* (60FPS) [1080p.LPCM 5.1.DTS.AC3.BluRay.x264-SONDA] [Lektor i Napisy PL] [ENG] [AT-TEAM] 2001: Odyseja Kosmiczna - 2001: A Space Odyssey (1968) [BRRip] [XviD-GR4PE] [Lektor PL] 2001: Odyseja kosmiczna - 2001: A Space Odyssey (1968) [UHD Blu-ray disc 2160p] [Lektor i Napisy PL] 2001-Odyseja Kosmiczna - 2001-A Space Odyssey (1968) [720p] [HDTV] [AVC] [Lektor PL] [D.T.m1125] 2001: Odyseja kosmiczna - 2001: A Space Odyssey (1968) [480p] [BDRip.XviD.AC3-ELiTE] [Lektor PL]
Szczegóły torrenta
TRACKER
Tracker Podstawowy: http://tracker.filetracker.pl:8089/announce

Multitrackery:

http://tracker.filetracker.pl:8089/announce
http://pow7.com:80/announce
http://pow7.com/announce
udp://tracker.leechers-paradise.org:6969/announce
udp://shadowshq.eddie4.nl:6969/announce
udp://9.rarbg.com:2710/announce
http://tracker.devil-torrents.pl/announce
udp://tracker.opentrackr.org:1337/announce
udp://tracker.openbittorrent.com:80/announce
udp://tracker.leechers-paradise.org:6969/announce
udp://9.rarbg.me:2710/announce

UAKTUALNIENIE
14/03/2019 12:59:09 (Jeśeli nie widac seeda kliknij na [uaktualnij] by odswieżyć statystyki).
[Lub sprawdź programem do pobierania torrentów, ponieważ niektóre trackery nie wyświetlają statystyk]
5 pliki
 
KOMENTARZE


Brak komentarzy...

DODAJ KOMENTARZ

Zaloguj się aby dodawać komentarze !!!



Wstecz








WRÓĆ NA GÓRĘ