FileTracker.PL - Darmowe polskie torrenty

Witaj drogi Towarzyszu!, jeżeli widzisz ten dymek to znaczy że nie jesteś jeszcze zarejestrowany/zalogowany. Kliknij by się zarejestrować . Rejestracja zajmie mniej niż 30 sekund, a dzięki niej zyskasz możliwość pobierania, komentowania oraz dodawania torrentów !
User:  Hasło:     



Kategorie


Detale Torrenta


Wróg U Bram - Enemy At The Gates *2001* [DVDRip.x264-Złośnicaa] [Lektor PL]

S: 3L: 0P: 32
Dodał: Tracker:
Kondycja:Dodane:2016-10-26 20:37:53
Kategoria:Filmy X264 / H264  »  WojenneRozmiar:539.30 MB
Język:Lektor PL  Lektor PL------------------
Obserwuj:OBSERWUJ TORRENTAStaty:UAKTUALNIJ TRACKER
Download: Pobierz TorrentRaport:RAPORTUJ TORRENTA




produkcja: Irlandia, Niemcy, USA, Wielka Brytania
premiera: 7 lutego 2001 - Świat
gatunek: Dramat, Wojenny
reżyseria:Jean-Jacques Annaud
scenariusz: Jean-Jacques Annaud, Alain Godard



Zima 1942 roku. Pod Stalingradem toczą się zażarte walki. Komisarz Daniłow zwraca uwagę na nieprzeciętne umiejętności strzeleckie jednego z żołnierzy, Wasilija Zajcewa. Stawiany przez niego jako wzór odwagi, chłopak zabija ze snajperskiego karabinu wielu przeciwników. Wieść o jego wyczynach dociera do oficerów niemieckich. Sprowadzają oni swojego strzelca wyborowego, majora Königa. Pomiędzy dwoma snajperami dochodzi do dramatycznego pojedynku.



Jude Law ... Wasilij Zajcew
Joseph Fiennes ... Komisarz Daniłow
Rachel Weisz ... Tania Czernowa
Ed Harris ... Major König






Video
ID : 1
Format : AVC
Format/INFO : Advanced Video Codec
Format profile : High@L3
Format settings, CABAC : Yes
Format settings, ReFrames : 4 frames
Codec ID : avc1
Codec ID/INFO : Advanced Video Coding
Duration : 2 h 5 min
Bit rate : 425 kb/s
Width : 720 pixels
Height : 304 pixels
Display aspect ratio : 2.35:1
Frame rate mode : Constant
Frame rate : 30.000 FPS
Color space : YUV
Chroma subsampling : 4:2:0
Bit depth : 8 bits
Scan type : Progressive
Bits/(Pixel*Frame) : 0.065
Stream size : 382 MiB (71%)
Writing library : x264 core 118

Audio
ID : 2
Format : AAC
Format/INFO : Advanced Audio Codec
Format profile : LC
Codec ID : 40
Duration : 2 h 5 min
Duration_LastFrame : -16 ms
Bit rate mode : Variable
Bit rate : 165 kb/s
Maximum bit rate : 256 kb/s
Channel(s) : 2 channels
Channel positions : Front: L R
Sampling rate : 48.0 kHz
Frame rate : 46.875 FPS (1024 spf)
Compression mode : Lossy
Stream size : 149 MiB (28%)
Default : Yes

====================================================

PODOBNE TORRENTY
Wróg u bram - Enemy at the Gates (2001) [AC3.DVDRip.XviD] [Lektor PL] Wróg u bram - Enemy at the Gates (2001) [DVDRip.[XviD] [Lektor PL] [D.T.A 26] Wróg u bram - Enemy at the Gates (2001) [AC3.DVDRip.XviD] [Lektor PL] [patriota] WRÓG U BRAM - ENEMY AT THE GATES (2001) [1080P] [AC3] [X264] [BRRIP] [LEKTOR PL] Wróg u bram - Enemy at the Gates (2001) [720P] [AC3] [x264] [BRRIP] [LEKTOR PL] [HIRANIA] Wróg u bram - Enemy at the Gates (2001) [2CD] [TVRip.XviD] [Lektor PL]
Szczegóły torrenta
TRACKER
Tracker Podstawowy: http://tracker.filetracker.pl:8089/announce

Multitrackery:

http://tracker.filetracker.pl:8089/announce
http://pow7.com:80/announce
http://pow7.com/announce
udp://tracker.leechers-paradise.org:6969/announce
http://tracker.aletorrenty.pl:2710/announce
udp://shadowshq.eddie4.nl:6969/announce

UAKTUALNIENIE
10/10/2020 19:16:24 (Jeśeli nie widac seeda kliknij na [uaktualnij] by odswieżyć statystyki).
[Lub sprawdź programem do pobierania torrentów, ponieważ niektóre trackery nie wyświetlają statystyk]
5 pliki
 
KOMENTARZE


Brak komentarzy...

DODAJ KOMENTARZ

Zaloguj się aby dodawać komentarze !!!



Wstecz








WRÓĆ NA GÓRĘ