FileTracker.PL - Darmowe polskie torrenty

Witaj drogi Towarzyszu!, jeżeli widzisz ten dymek to znaczy że nie jesteś jeszcze zarejestrowany/zalogowany. Kliknij by się zarejestrować . Rejestracja zajmie mniej niż 30 sekund, a dzięki niej zyskasz możliwość pobierania, komentowania oraz dodawania torrentów !
User:  Hasło:     



Kategorie


Detale Torrenta


Szpiedzy Tacy Jak Oni - All The Queen's Men *2001* [DVDRip.x264-Złośnicaa] [Lektor PL]

S: 4L: 5P: 18
Dodał: Tracker:
Kondycja:Dodane:2016-10-24 19:07:43
Kategoria:Filmy X264 / H264  »  WojenneRozmiar:261.17 MB
Język:Lektor PL  Lektor PL------------------
Obserwuj:OBSERWUJ TORRENTAStaty:UAKTUALNIJ TRACKER
Download: Pobierz TorrentRaport:RAPORTUJ TORRENTA




produkcja: Austria, Niemcy, USA, Węgry
premiera: 14 października 2001 - Świat
gatunek: Dramat, Komedia, Wojenny
reżyseria: Stefan Ruzowitzky
scenariusz: Jeff Stockwell, David Schneider



II Wojna Światowa, Europa. Steven O'Rurke agent amerykańskich sił specjalnych, zostaje przydzielony do brytyjskiego wywiadu. Tam otrzymuje od dowódcy zadanie o niezwykłym stopniu trudności. Ma przedostać się wraz z innymi agentami na tyły wroga i wykraść Enigmę niemiecką maszynę szyfrującą o wielkim strategicznym znaczeniu. Grupa szpiegów wybiera bardzo niekonwencjonalny sposób wykonania zadania.



Nicolette Krebitz ... Romy
James Cosmo ... Archie
Eddie Izzard ... Tony Parker
Matt LeBlanc ... Steven O'Rourke





Video
ID : 1
Format : AVC
Format/INFO : Advanced Video Codec
Format profile : High@L4.1
Format settings, CABAC : Yes
Format settings, ReFrames : 6 frames
Codec ID : avc1
Codec ID/INFO : Advanced Video Coding
Duration : 1 h 37 min
Bit rate : 322 kb/s
Width : 640 pixels
Height : 272 pixels
Display aspect ratio : 1.85:1
Original display aspect ratio : 1.85:1
Frame rate mode : Constant
Frame rate : 20.000 FPS
Color space : YUV
Chroma subsampling : 4:2:0
Bit depth : 8 bits
Scan type : Progressive
Bits/(Pixel*Frame) : 0.092
Stream size : 224 MiB (86%)
Writing library : x264 core 132 r2 3b1f1f7

Audio
ID : 2
Format : AAC
Format/INFO : Advanced Audio Codec
Format profile : LC
Codec ID : 40
Duration : 1 h 37 min
Bit rate mode : Variable
Bit rate : 48.0 kb/s
Maximum bit rate : 48.7 kb/s
Channel(s) : 2 channels
Channel positions : Front: L R
Sampling rate : 44.1 kHz
Frame rate : 43.066 FPS (1024 spf)
Compression mode : Lossy
Stream size : 33.4 MiB (13%)
Default : Yes

====================================================

PODOBNE TORRENTY
Szpiedzy tacy jak my - Spies Like Us *1985* [DVDRip] [XviD-KiT] [Lektor PL] Szpiedzy tacy jak my - Spies Like Us (1985) [DVDRip.XviD] [Lektor PL] Szpiedzy tacy jak my - Spies Like Us (1985) [DVDRip.XviD] [Lektor PL] Szpiedzy tacy jak my - Spies Like Us (1985) [DVDRip.XviD] [Lektor PL] [D.T.A 26] 2001: Odyseja Kosmiczna - 2001: A Space Odyssey *1968* [DVDRip.x264-Złośnicaa] [Lektor PL]  Szpiedzy I Piraci - Caraibi *1999* [miniserial] [TVRip.x264-Złośnicaa] [Lektor PL]
Szczegóły torrenta
TRACKER
Tracker Podstawowy: http://tracker.filetracker.pl:8089/announce

Multitrackery:

http://tracker.filetracker.pl:8089/announce
http://pow7.com:80/announce
http://pow7.com/announce
udp://tracker.leechers-paradise.org:6969/announce
http://tracker.aletorrenty.pl:2710/announce
udp://shadowshq.eddie4.nl:6969/announce

UAKTUALNIENIE
05/04/2017 06:00:37 (Jeśeli nie widac seeda kliknij na [uaktualnij] by odswieżyć statystyki).
[Lub sprawdź programem do pobierania torrentów, ponieważ niektóre trackery nie wyświetlają statystyk]
5 pliki
 
KOMENTARZE


Brak komentarzy...

DODAJ KOMENTARZ

Zaloguj się aby dodawać komentarze !!!



Wstecz








WRÓĆ NA GÓRĘ