FileTracker.PL - Darmowe polskie torrenty

Witaj drogi Towarzyszu!, jeżeli widzisz ten dymek to znaczy że nie jesteś jeszcze zarejestrowany/zalogowany. Kliknij by się zarejestrować . Rejestracja zajmie mniej niż 30 sekund, a dzięki niej zyskasz możliwość pobierania, komentowania oraz dodawania torrentów !
User:  Hasło:     



Kategorie


Detale Torrenta


Szara Strefa - The Grey Zone *2001* [DVDRip.x264-Złośnicaa] [Lektor PL]

S: 15L: 18P: 52
Dodał: Tracker:
Kondycja:Dodane:2016-10-23 23:37:49
Kategoria:Filmy X264 / H264  »  WojenneRozmiar:509.30 MB
Język:Lektor PL  Lektor PL------------------
Obserwuj:OBSERWUJ TORRENTAStaty:UAKTUALNIJ TRACKER
Download: Pobierz TorrentRaport:RAPORTUJ TORRENTA




produkcja: USA
premiera: 13 września 2001 - Świat
gatunek: Dramat, Wojenny
reżyseria: Tim Blake Nelson
scenariusz: Tim Blake Nelson



Film oparty na prawdziwych wydarzeniach gdzie grupa żydowskich więźniów, zmuszonych przez hitlerowców do pomocy przy eksterminacji rodaków, planuje bunt.



David Arquette ... Hoffman
Oncho Alexanyan ... Rivkin
Henry Stram ... Mengele
Brían F. O'Byrne ... Interrogator





Video
ID : 1
Format : AVC
Format/INFO : Advanced Video Codec
Format profile : High@L3
Format settings, CABAC : Yes
Format settings, ReFrames : 4 frames
Codec ID : avc1
Codec ID/INFO : Advanced Video Coding
Duration : 1 h 44 min
Bit rate : 510 kb/s
Width : 688 pixels
Height : 496 pixels
Display aspect ratio : 1.387
Frame rate mode : Constant
Frame rate : 30.000 FPS
Color space : YUV
Chroma subsampling : 4:2:0
Bit depth : 8 bits
Scan type : Progressive
Bits/(Pixel*Frame) : 0.050
Stream size : 379 MiB (75%)
Writing library : x264 core 118

Audio
ID : 2
Format : AAC
Format/INFO : Advanced Audio Codec
Format profile : LC
Codec ID : 40
Duration : 1 h 44 min
Duration_LastFrame : -11 ms
Bit rate mode : Variable
Bit rate : 165 kb/s
Maximum bit rate : 256 kb/s
Channel(s) : 2 channels
Channel positions : Front: L R
Sampling rate : 48.0 kHz
Frame rate : 46.875 FPS (1024 spf)
Compression mode : Lossy
Stream size : 123 MiB (24%)
Default : Yes

====================================================

PODOBNE TORRENTY
Szara Strefa - The Grey Zone *2001* [DVDRiP] [XviD] [Lektor PL] Szara strefa *2001* [DVDRiP] [XviD] [Lektor PL] Zielona Strefa - Green Zone *2010* [DVDRip.x264-Złośnicaa] [Lektor PL] Martwa strefa/ The Dead Zone (1983) [DVDRip.x264] [Lektor PL] Szara Sowa - Grey Owl *1999* [DVDRip.XviD] [Lektor PL] Strefa Q - Area Q *2011* [DVDRip.x264-Złośnicaa] [Lektor PL]
Szczegóły torrenta
TRACKER
Tracker Podstawowy: http://tracker.filetracker.pl:8089/announce

Multitrackery:

http://tracker.filetracker.pl:8089/announce
http://pow7.com:80/announce
http://pow7.com/announce
udp://tracker.leechers-paradise.org:6969/announce
http://tracker.aletorrenty.pl:2710/announce
udp://shadowshq.eddie4.nl:6969/announce

UAKTUALNIENIE
09/09/2019 19:26:52 (Jeśeli nie widac seeda kliknij na [uaktualnij] by odswieżyć statystyki).
[Lub sprawdź programem do pobierania torrentów, ponieważ niektóre trackery nie wyświetlają statystyk]
5 pliki
 
KOMENTARZE


Brak komentarzy...

DODAJ KOMENTARZ

Zaloguj się aby dodawać komentarze !!!



Wstecz








WRÓĆ NA GÓRĘ