FileTracker.PL - Darmowe polskie torrenty

Witaj drogi Towarzyszu!, jeżeli widzisz ten dymek to znaczy że nie jesteś jeszcze zarejestrowany/zalogowany. Kliknij by się zarejestrować . Rejestracja zajmie mniej niż 30 sekund, a dzięki niej zyskasz możliwość pobierania, komentowania oraz dodawania torrentów !
User:  Hasło:     



Kategorie


Detale Torrenta


Grimsby - The Brothers Grimsby *2016* [1080p.AC3 5.1.BDRip.x264-LEON 345] [Lektor i napisy PL]

S: 5L: 0P: 226
Dodał: Leon345 Tracker:
Kondycja:Dodane:2016-07-28 11:41:52
Kategoria:Filmy X264 / H264  »  KomedieRozmiar:2.96 GB
Język:Lektor PL  Lektor PL------------------
Obserwuj:OBSERWUJ TORRENTAStaty:UAKTUALNIJ TRACKER
Download: Pobierz TorrentRaport:RAPORTUJ TORRENTA
Grimsby - The Brothers Grimsby *2016* BDRip.1080p.AC3 5.1.Leon345
=========================================

Produkcja: Australia, Wielka Brytania
Gatunek: Komedia, Akcja
Czas trwania: 83 min.
Premiera: 26.02.2016 - Polska, 24.02.2016 - Świat
Reżyseria: Louis Leterrier
Scenariusz: Sacha Baron Cohen, Phil Johnston, Peter Baynham

https://imdb.com/title/tt3381008/

Absolutna jazda bez trzymanki! Komedia absurdu według scenariusza Sachy Barona Cohena. Film opowiada historię brytyjskiego agenta do zadań specjalnych (Mark Strong), który wmieszany w spisek, musi ukrywać się w rodzinnym Grimsby, przy którym najciemniejsze zakątki warszawskiej Pragi wydają się centrum kulturalnym wszechświata. W wyplątaniu się z dramatycznej życiowej sytuacji pomaga mu brat. Kibol-degenerat o złotym sercu.

OBSADA:

Sacha Baron Cohen - Norman "Nobby" Grimsby
Mark Strong - Sebastian Grimsby
Rebel Wilson - Dawn Grobham
Penélope Cruz - Rhonda George
Isla Fisher - Jodie Figgis
Gabourey Sidibe - Sprzątaczka Banu
Tamsin Egerton - Carla Barnes
Scott Adkins - Pavel Lukashenko

General

Format : Matroska
Format version : Version 2
File size : 2.96 GiB
Duration : 1h 23mn
Overall bit rate : 5 093 Kbps
Movie name : Grimsby.2016.BDRip.1080p.Leon345
Encoded date : UTC 2016-07-27 14:12:45
Writing application : mkvmerge v5.7.0 ('The Whirlwind') built on Jul 8 2012 20:08:51
Writing library : libebml v1.2.3 + libmatroska v1.3.0

Video
ID : 1
Format : AVC
Format/INFO : Advanced Video Codec
Format profile : High@L4.1
Format settings, CABAC : Yes
Format settings, ReFrames : 4 frames
Codec ID : V_MPEG4/ISO/AVC
Duration : 1h 23mn
Bit rate : 4 299 Kbps
Width : 1 920 pixels
Height : 800 pixels
Display aspect ratio : 2.40:1
Frame rate mode : Constant
Frame rate : 23.976 (24000/1001) fps
Color space : YUV
Chroma subsampling : 4:2:0
Bit depth : 8 bits
Scan type : Progressive
Bits/(Pixel*Frame) : 0.117
Stream size : 2.45 GiB (83%)
Writing library : x264 core 148 r2638 7599210
Encoding settings : cabac=1 / ref=4 / deblock=1:-1:-1 / rc=2pass
Default : Yes
Forced : No

Audio #1
ID : 2
Format : AC-3
Format/INFO : Audio Coding 3
Mode extension : CM (complete main)
Format settings, Endianness : Big
Codec ID : A_AC3
Duration : 1h 23mn
Bit rate mode : Constant
Bit rate : 384 Kbps
Channel(s) : 6 channels
Channel positions : Front: L C R, Side: L R, LFE
Sampling rate : 48.0 KHz
Compression mode : Lossy
Stream size : 228 MiB (8%)
Title : AC3 5.1 Lektor PL
Language : Polish
Default : Yes
Forced : No

Audio #2
ID : 3
Format : AC-3
Format/INFO : Audio Coding 3
Mode extension : CM (complete main)
Format settings, Endianness : Big
Codec ID : A_AC3
Duration : 1h 23mn
Bit rate mode : Constant
Bit rate : 384 Kbps
Channel(s) : 6 channels
Channel positions : Front: L C R, Side: L R, LFE
Sampling rate : 48.0 KHz
Compression mode : Lossy
Stream size : 228 MiB (8%)
Title : AC3 5.1 ENG
Language : English
Default : No
Forced : No

Text #1
ID : 4
Format : UTF-8
Codec ID : S_TEXT/UTF8
Codec ID/INFO : UTF-8 Plain Text
Title : OCR z Bluray Leon345
Language : Polish
Default : No
Forced : No

Text #2
ID : 5
Format : UTF-8
Codec ID : S_TEXT/UTF8
Codec ID/INFO : UTF-8 Plain Text
Title : OCR z Bluray Leon345
Language : English
Default : No
Forced : No

Text #3
ID : 6
Format : PGS
Muxing mode : zlib
Codec ID : S_HDMV/PGS
Codec ID/INFO : Picture based subtitle format used on BDs/HD-DVDs
Title : Bluray orginal
Language : Polish
Default : No
Forced : No

Text #4
ID : 7
Format : PGS
Muxing mode : zlib
Codec ID : S_HDMV/PGS
Codec ID/INFO : Picture based subtitle format used on BDs/HD-DVDs
Title : Bluray orginal
Language : English
Default : No
Forced : No

Source:
A/V-BD CEE

====================================================

PODOBNE TORRENTY
Grimsby - The Brothers Grimsby *2016* [720p.AC3 5.1.BDRip.x264-LEON 345] [Lektor i napisy PL] Grimsby - The Brothers Grimsby *2016* [BDRip] [XviD-MORS] [Lektor PL] [AgusiQ] Grimsby / The Brothers Grimsby (2016) [480p] [BDRip] [XviD] [AC3-MORS] [Lektor PL] Grimsby - The Brothers Grimsby *2016* [BDRip] [XviD-MORS] [Lektor PL] Grimsby - The Brothers Grimsby *2016* [480p] [BDRip] [XviD] [AC3-KiT] [Lektor PL] Grimsby / The Brothers Grimsby (2016) [480p] [BDRiP] [XViD] [AC3-K12] [Lektor PL]
Szczegóły torrenta
TRACKER
Tracker Podstawowy: http://tracker.filetracker.pl:8089/announce

Multitrackery:

http://tracker.filetracker.pl:8089/announce
http://tracker.aletorrenty.pl:2710/announce
http://tracker.torrenty.org:6969/announce
http://tracker.tfile.me/announce
http://retracker.omsk.ru:2710/announce
http://mgtracker.org:2710/announce
udp://tracker.leechers-paradise.org:6969/announce

UAKTUALNIENIE
23/11/2018 11:34:52 (Jeśeli nie widac seeda kliknij na [uaktualnij] by odswieżyć statystyki).
[Lub sprawdź programem do pobierania torrentów, ponieważ niektóre trackery nie wyświetlają statystyk]
3 pliki
 
KOMENTARZE


Brak komentarzy...

DODAJ KOMENTARZ

Zaloguj się aby dodawać komentarze !!!



Wstecz








WRÓĆ NA GÓRĘ