FileTracker.PL - Darmowe polskie torrenty

Witaj drogi Towarzyszu!, jeżeli widzisz ten dymek to znaczy że nie jesteś jeszcze zarejestrowany/zalogowany. Kliknij by się zarejestrować . Rejestracja zajmie mniej niż 30 sekund, a dzięki niej zyskasz możliwość pobierania, komentowania oraz dodawania torrentów !
User:  Hasło:     



Kategorie


Detale Torrenta


Madonna-Sticky & Sweet Tour (2010)[BRRip 1080p x264 by alE13 AC3/DTS] [ENG]

S: 4L: 7P: 31
Dodał: gawroniasty Tracker:
Kondycja:Dodane:2016-07-04 16:03:06
Kategoria:Filmy X264 / H264  »  PozostałeRozmiar:11.57 GB
Język:Wersja ENG  Wersja ENG------------------
Obserwuj:OBSERWUJ TORRENTAStaty:UAKTUALNIJ TRACKER
Download: Pobierz TorrentRaport:RAPORTUJ TORRENTA


https://www.imdb.com/title/tt1629336/

data: 2010
gatynek: pop
produkcja: USA
wydawca: Warner Music
reżyseria: Nathan Rissman, Nick Wickham
zdjęcia: Eric Broms
czas: 2h 5mn



Filmed in Buenos Aires, over four days in front of more than 256,000 fans, 'Sticky & Sweet'
captures the most successful live show ever by an artist.

Zapis z koncertu Madonny z południowoamerykańskiej część światowej trasy zatytułowanej
"Sticky and Sweet", zapis występu z 4, 6 i 7 grudnia 2008 na scenie koncertowej stadionie
River Plate w Buenos Aires (Argentyna). "Sticky and Sweet" to ósme światowe tournee Madonny
promujace wyjściu 11 albumu piosenkarki pop "Hard Candy", który ukazał się pod koniec
kwietnia 2008 roku.



Madonna, Kevin Antunes, Monte Pittman



01. Intro: The Sweet Machine
02. Candy Shop Medley
03. Beat Goes On Medley [Feat. Kanye West]
04. Human Nature
05. Vogue 2008
06. Die Another Day 2008
07. Into The Groove 2008
08. Heartbeat
09. Borderline
10. She's Not Me
11. Music 2008
12. Rain/Here Comes The Rain Again
13. Devil Wouldn't Recognize You
14. Spanish Lesson
15. Miles Away
16. La Isla Bonita Medley
17. Me Darava/Doli Doli
18. You Must Love Me
19. Don't Cry For Me Argentina
20. Get Stupid Medley
21. 4 Minutes [Feat. Justin Timberlake And Timbaland]
22. Like A Prayer 2008
23. Ray Of Light
24. Like A Virgin 2008
25. Hung Up Medley
26. Give It 2 Me
27. Credits

bonus:

Behind-The-Scenes



Madonna - Sticky and Sweet Tour (2010)-alE13.mkv
Format : Matroska
Format version : Version 4 / Version 2
File size : 10.4 GiB
Duration : 2h 5mn
Overall bit rate : 11.9 Mbps
Movie name : Madonna - Sticky and Sweet Tour (2010)-alE13
Encoded date : UTC 2016-06-28 08:01:04
Writing application : mkvmerge v8.1.0 ('Psychedelic Postcard') 64bit
Writing library : libebml v1.3.1 + libmatroska v1.4.2

Video
ID : 1
Format : AVC
Format/INFO : Advanced Video Codec
Format profile : High@L4.1
Format settings, CABAC : Yes
Format settings, ReFrames : 2 frames
Codec ID : V_MPEG4/ISO/AVC
Duration : 2h 5mn
Bit rate : 6 251 Kbps
Width : 1 920 pixels
Height : 1 080 pixels
Display aspect ratio : 16:9
Frame rate mode : Constant
Frame rate : 29.970 (30000/1001) fps
Color space : YUV
Chroma subsampling : 4:2:0
Bit depth : 8 bits
Scan type : Progressive
Bits/(Pixel*Frame) : 0.101
Stream size : 5.46 GiB (52%)
Title : Madonna - Sticky and Sweet Tour (2010)-alE13
Writing library : x264 core 142
Default : Yes
Forced : No
Color range : Limited
Color primaries : BT.709
Transfer characteristics : BT.709
Matrix coefficients : BT.709

Audio #1
ID : 2
Format : AC-3
Format/INFO : Audio Coding 3
Mode extension : CM (complete main)
Format settings, Endianness : Big
Codec ID : A_AC3
Duration : 2h 5mn
Bit rate mode : Constant
Bit rate : 448 Kbps
Channel(s) : 6 channels
Channel positions : Front: L C R, Side: L R, LFE
Sampling rate : 48.0 KHz
Frame rate : 31.250 fps (1536 spf)
Compression mode : Lossy
Stream size : 401 MiB (4%)
Title : Madonna - Sticky and Sweet Tour (2010)-alE13_AC3
Language : English
Default : No
Forced : No

Audio #2
ID : 3
Format : DTS
Format/INFO : Digital Theater Systems
Format profile : MA / Core
Mode : 16
Format settings, Endianness : Big
Codec ID : A_DTS
Duration : 2h 5mn
Bit rate mode : Variable / Constant
Bit rate : 5 245 Kbps / 1 509 Kbps
Channel(s) : 6 channels
Channel positions : Front: L C R, Side: L R, LFE
Sampling rate : 48.0 KHz
Frame rate : 93.750 fps (512 spf)
Bit depth : 24 bits
Compression mode : Lossless / Lossy
Stream size : 4.59 GiB (44%)
Title : Madonna - Sticky and Sweet Tour (2010)-alE13_DTS
Language : English
Default : Yes
Forced : No

====================================================

PODOBNE TORRENTY
The Shadows: The Final Tour (2004)[BRRip 1080p x264 by alE13 DTS/AC3] [ENG]  Sting: Live in Berlin (2010)[BRRip 1080p x264 by alE13 AC3/DTS] [ENG] Stone (2010)[BRRip 1080p x264 by alE13 AC3/DTS] [Lektor PL & Subtitles PL/ENG] [ENG] 127 Godzin-127 Hours (2010)[BRRip 1080p x264 by alE13 AC3] [Lektor i Napisy PL/ENG] [ENG] Incepcja/Inception (2010)[BRRip 1080p x264 by Kis & alE13 AC3/DTS] [Lektori Napisy PL/ENG] [ENG] Katy Perry: The Prismatic World Tour Live (2015)[BRRip.1080p.x265-HEVC by alE13.AC3/DTS/FLAC] [ENG]
Szczegóły torrenta
TRACKER
Tracker Podstawowy: http://tracker.aletorrenty.pl:2710/announce

Multitrackery:

http://tracker.aletorrenty.pl:2710/announce
http://tracker.filetracker.pl:8089/announce
http://tracker.torrenty.org:6969/announce
http://tracker.ex.ua/announce
udp://inferno.demonoid.ooo:3392/announce
http://torrent.gresille.org/announce.php
udp://tracker.aletorrenty.pl:2710/announce
udp://tracker.openbittorrent.com:80/announce
udp://tracker.leechers-paradise.org:6969/announce

UAKTUALNIENIE
03/06/2018 13:08:36 (Jeśeli nie widac seeda kliknij na [uaktualnij] by odswieżyć statystyki).
[Lub sprawdź programem do pobierania torrentów, ponieważ niektóre trackery nie wyświetlają statystyk]
10 pliki
 
KOMENTARZE


Brak komentarzy...

DODAJ KOMENTARZ

Zaloguj się aby dodawać komentarze !!!



Wstecz








WRÓĆ NA GÓRĘ