FileTracker.PL - Darmowe polskie torrenty

Witaj drogi Towarzyszu!, jeżeli widzisz ten dymek to znaczy że nie jesteś jeszcze zarejestrowany/zalogowany. Kliknij by się zarejestrować . Rejestracja zajmie mniej niż 30 sekund, a dzięki niej zyskasz możliwość pobierania, komentowania oraz dodawania torrentów !
User:  Hasło:     






Kategorie


Najczęściej pobierane w Lutym


Remonty i Wykończenia wnętrz-opolskie-dolnośląskie

Remonty i Wykończenia wnętrz-opolskie-dolnośląskie

Detale Torrenta


Love 3D *2015* [PLSUBBED.mini-HD.1080p.3D.Half.Over-Under.AC3.BluRay.x264-SONDA] [ENG] [AT-TEAM]

S: 35L: 11P: 76
Dodał: ~$sonda~ Tracker:
Kondycja:Dodane:2015-12-05 14:27:17
Kategoria:Filmy 3D / SBS  »  DramatRozmiar:3.92 GB
Język:Napisy PL  Napisy PL------------------
Obserwuj:OBSERWUJ TORRENTAStaty:UAKTUALNIJ TRACKER
Download: Pobierz TorrentRaport:RAPORTUJ TORRENTA
==============================
FILM TYLKO DLA WIDZÓW DOROSŁYCH OD LAT 18 !!!!!!
=================================



Film w wersji 3D Over-Under.
Do odtworzenia filmu WYMAGANY odpowiedni sprzęt (TV 3D)
===========================================
UWAGA: Napisy na stałe wtopione w film. Zapraszam Wszystkich chętnych !!!!!!!
=====================================================

Kopia mini-HD 1080p = 3,91 GB

gatunek: Dramat
produkcja: Belgia,Francja
premiera: 28 sierpnia 2015 (Polska) 20 maja 2015 (świat)
reżyseria: Gaspar Noé
scenariusz: Gaspar Noé

http://www.imdb.com/title/tt3774694/

OBSADA:

Aomi Muyock ... Electra
Karl Glusman ... Murphy
Klara Kristin ... Omi
Ugo Fox ... Gaspar
Juan Saavedra ... Julio
Aaron Pages ... Noe
Isabelle Nicou ... Nora
Benoît Debie ... Yuyo

OPIS

Pod wpływem telefonu od matki byłej dziewczyny Murphy wspomina płomienny romans z Electrą, pełen obietnic, ekscesów i pomyłek.

Storyline:

Murphy is an American living in Paris who enters a highly sexually and emotionally charged relationship with the unstable Electra. Unaware of the effect it will have on their relationship, they invite their pretty neighbor into their bed.

Screenshot:







General
Format : Matroska
Format version : Version 2
File size : 3.92 GiB
Duration : 2h 15mn
Overall bit rate : 4 149 Kbps
Movie name : Love.3D.2015.PLSUBBED.H-OU.BDRip.miniHD.1080p Rip by Sonda [AT-Team]
Encoded date : UTC 2015-12-05 05:16:32
Writing application : mkvmerge v5.7.0 ('The Whirlwind') built on Jul 8 2012 20:08:51
Writing library : libebml v1.2.3 + libmatroska v1.3.0

Video
ID : 1
Format : AVC
Format/INFO : Advanced Video Codec
Format profile : High@L4.1
Format settings, CABAC : Yes
Format settings, ReFrames : 4 frames
Codec ID : V_MPEG4/ISO/AVC
Duration : 2h 15mn
Bit rate : 3 700 Kbps
Width : 1 920 pixels
Height : 1 080 pixels
Display aspect ratio : 16:9 (2.39:1)
Frame rate mode : Constant
Frame rate : 23.976 fps
Color space : YUV
Chroma subsampling : 4:2:0
Bit depth : 8 bits
Scan type : Progressive
Bits/(Pixel*Frame) : 0.074
Stream size : 3.42 GiB (87%)
Title : PLSUBBED Rip by Sonda
Writing library : x264
Encoding settings : cabac=1 / ref=4 / deblock=1:-1:-1 / rc=2pass
Default : Yes
Forced : No

Audio
ID : 2
Format : AC-3
Format/INFO : Audio Coding 3
Mode extension : CM (complete main)
Format settings, Endianness : Big
Codec ID : A_AC3
Duration : 2h 15mn
Bit rate mode : Constant
Bit rate : 448 Kbps
Channel count : 6 channels
Channel positions : Front: L C R, Side: L R, LFE
Sampling rate : 48.0 KHz
Bit depth : 16 bits
Compression mode : Lossy
Stream size : 433 MiB (11%)
Title : AC3 5.1
Language : English
Default : Yes
Forced : No

Source:
A/V-Love.2015.1080p.3D.BluRay.AVC.DTS-HD.MA.5.1-RARBG
Thanks - Sonda



====================================================

PODOBNE TORRENTY
Wolf Totem 3D *2015* [PLSUBBED.mini-HD.1080p.3D.Half.Over-Under.AC3.BluRay.x264-SONDA] [CHI] [AT-TEAM] Zhong Kui Fu Mo: Xue Yao Mo Ling 3D *2015* [PLSUBBED.mini-HD.1080p.3D.Half.Over-Under.AC3.BluRay.x264-SONDA] [CHI] [AT-TEAM] W głowie się nie mieści 3D - Inside Out *2015* [PLSUBBED.mini-HD.1080p.3D.Half.Over-Under.AC3.BluRay.x264-SONDA] [ENG] [AT-TEAM] Łowcy potworów 3D - Monster Hunt *2015* [PLSUBBED.mini-HD.1080p.3D.Half.Over-Under.AC3.BluRay.x264-SONDA] [CHI] [AT-TEAM] Dobry dinozaur 3D - The Good Dinosaur *2015* [PLSUBBED.mini-HD.1080p.3D.Half.Over-Under.AC3.BluRay.x264-SONDA] [ENG] [AT-TEAM] Love 3D *2015* [PLSUBBED.1080p.3D.Half.Over-Under.DTS-HD MA 5.1.AC3.BluRay.x264-SONDA] [ENG] [AT-TEAM]
Szczegóły torrenta
TRACKER
Tracker Podstawowy: http://tracker.torrenty.org:6969/announce

Multitrackery:

http://tracker.torrenty.org:6969/announce
http://tracker.aletorrenty.pl:2710/announce
http://tracker.filetracker.pl:8089/announce
http://www.tlv.cc:7777/announce
http://tracker.flashtorrents.org:6969/announce
http://tracker.pubt.net:2710/announce
udp://tracker.aletorrenty.pl:2710/announce
udp://torrent.gresille.org:80/announce
udp://9.rarbg.com:2710/announce
udp://9.rarbg.me:2710/announce
udp://coppersurfer.tk:6969/announce
udp://eddie4.nl:6969/announce
udp://glotorrents.com:6969/announce
udp://open.demonii.com:1337/announce
udp://shadowshq.eddie4.nl:6969/announce
udp://tracker.glotorrents.com:6969/announce
udp://tracker.leechers-paradise.org:6969/announce
udp://www.eddie4.nl:6969/announce
udp://open.demonii.com:1337

UAKTUALNIENIE
13/11/2019 02:48:49 (Jeśeli nie widac seeda kliknij na [uaktualnij] by odswieżyć statystyki).
[Lub sprawdź programem do pobierania torrentów, ponieważ niektóre trackery nie wyświetlają statystyk]
10 pliki
 
KOMENTARZE


Brak komentarzy...

DODAJ KOMENTARZ

Zaloguj się aby dodawać komentarze !!!



Wstecz








WRÓĆ NA GÓRĘ