FileTracker.PL - Darmowe polskie torrenty

Witaj drogi Towarzyszu!, jeżeli widzisz ten dymek to znaczy że nie jesteś jeszcze zarejestrowany/zalogowany. Kliknij by się zarejestrować . Rejestracja zajmie mniej niż 30 sekund, a dzięki niej zyskasz możliwość pobierania, komentowania oraz dodawania torrentów !
User:  Hasło:     






Kategorie


Najczęściej pobierane w Lutym


Remonty i Wykończenia wnętrz-opolskie-dolnośląskie

Remonty i Wykończenia wnętrz-opolskie-dolnośląskie

Detale Torrenta


Czarna Księga-Black Book (2006)[BDRip.1080p.x265-HEVC-by alE13.AC3] [Lektor i Napisy PL/ENG] [Ger]

S: 1L: 2P: 93
Dodał: alE13 Tracker:
Kondycja:Dodane:2015-10-14 05:48:53
Kategoria:Filmy UHD4K / x265  »  WojenneRozmiar:6.93 GB
Język:Lektor PL  Lektor PL------------------
Obserwuj:OBSERWUJ TORRENTAStaty:UAKTUALNIJ TRACKER
Download: Pobierz TorrentRaport:RAPORTUJ TORRENTA




http://www.filmweb.pl/Czarna.Ksiega
http://www.imdb.com/title/tt0389557/

reżyseria: Paul Verhoeven
scenariusz: Paul Verhoeven,Gerard Soeteman
gatunek: Dramat,Wojenny
produkcja: Belgia,Holandia,Niemcy,Wielka Brytania
premiera: 01-09-2006
czas: 02:25:47



In the Nazi-occupied Netherlands during World War II, a Jewish singer infiltrates
the regional Gestapo headquarters for the Dutch resistance.

Jest to historia żydowskiej piosenkarki o imieniu Rachel. Udaje jej się uniknąć śmierci
z rąk Niemców i przedostać na południe Holandii. Jesienią 1944 roku przyłącza się do holenderskiego
ruchu oporu pod pseudonimem "Ellis". Chcąc zyskać uznanie wśród ruchu oporu przefarbowuje swoje włosy
na blond i uwodzi niemieckiego oficera. W końcu jednak zostaje zdradzona przez kogoś z wewnątrz ruchu
oporu i oskarżona o szpiegostwo. W 1945 roku zostaje oswobodzona... Rozpoczyna prywatne śledztwo
by ustalić, kto ją zdradził.








Carice van Houten, Sebastian Koch, Thom Hoffman



Black Book (2006)-alE13.mkv
Format : Matroska
Format version : Version 4 / Version 2
File size : 6.93 GiB
Duration : 2h 25mn
Overall bit rate : 6 801 Kbps
Movie name : Black Book (2006)-alE13
Encoded date : UTC 2015-10-13 06:39:05
Writing application : mkvmerge v8.1.0 ('Psychedelic Postcard') 64bit
Writing library : libebml v1.3.1 + libmatroska v1.4.2
DURATION : 02:17:21.783000000
NUMBER_OF_FRAMES : 1155
NUMBER_OF_BYTES : 36522
_STATISTICS_WRITING_APP : mkvmerge v8.1.0 ('Psychedelic Postcard') 64bit
_STATISTICS_WRITING_DATE_UT : 2015-10-13 06:39:05
_STATISTICS_TAGS : BPS DURATION NUMBER_OF_FRAMES NUMBER_OF_BYTES

Video
ID : 1
Format : HEVC
Format/INFO : High Efficiency Video Coding
Codec ID : V_MPEGH/ISO/HEVC
Duration : 2h 25mn
Bit rate : 5 770 Kbps
Width : 1 920 pixels
Height : 816 pixels
Display aspect ratio : 2.35:1
Frame rate mode : Constant
Frame rate : 23.976 fps
Bits/(Pixel*Frame) : 0.154
Stream size : 5.88 GiB (85%)
Title : Black Book (2006)-alE13
Default : Yes
Forced : No

Audio #1
ID : 2
Format : AC-3
Format/INFO : Audio Coding 3
Mode extension : CM (complete main)
Format settings, Endianness : Big
Codec ID : A_AC3
Duration : 2h 25mn
Bit rate mode : Constant
Bit rate : 640 Kbps
Channel(s) : 6 channels
Channel positions : Front: L C R, Side: L R, LFE
Sampling rate : 48.0 KHz
Compression mode : Lossy
Stream size : 667 MiB (9%)
Title : Black Book (2006)-alE13
Language : German
Default : No
Forced : No

Audio #2
ID : 4
Format : AC-3
Format/INFO : Audio Coding 3
Mode extension : CM (complete main)
Format settings, Endianness : Big
Codec ID : A_AC3
Duration : 2h 25mn
Bit rate mode : Constant
Bit rate : 256 Kbps
Channel(s) : 2 channels
Channel positions : Front: L R
Sampling rate : 48.0 KHz
Compression mode : Lossy
Delay relative to video : 1s 0ms
Stream size : 267 MiB (4%)
Title : Black Book (2006)-alE13
Language : Polish
Default : Yes
Forced : No

Text #1
ID : 3
Format : UTF-8
Codec ID : S_TEXT/UTF8
Codec ID/INFO : UTF-8 Plain Text
Title : Black Book (2006)-alE13
Language : English
Default : No
Forced : No

Text #2
ID : 5
Format : UTF-8
Codec ID : S_TEXT/UTF8
Codec ID/INFO : UTF-8 Plain Text
Title : Black Book (2006)-alE13
Language : Polish
Default : Yes
Forced : No

Menu
00:00:00.000 : en:00:00:00.000
00:08:12.283 : en:00:08:12.283
00:15:25.967 : en:00:15:25.967
00:25:08.799 : en:00:25:08.799
00:34:57.762 : en:00:34:57.762
00:45:45.785 : en:00:45:45.785
00:50:36.742 : en:00:50:36.742
01:01:15.380 : en:01:01:15.380
01:11:21.194 : en:01:11:21.194
01:18:03.512 : en:01:18:03.512
01:27:57.949 : en:01:27:57.939
01:34:44.439 : en:01:34:44.429
01:45:51.981 : en:01:45:51.971
01:55:33.520 : en:01:55:33.510
02:06:57.578 : en:02:06:57.568
02:15:50.736 : en:02:15:50.726

====================================================

PODOBNE TORRENTY
Czarna księga / Zwartboek / Black Book (2006) [BDRip] [XviD-wasik] [Lektor PL] Czarna Księga - Zwartboek - Black Book *2006* [DVDRip.x264-Złośnicaa] [Lektor PL] Księga Dżungli 2-The Jungle Book 2 (2003)[BRRip.1080p.x265-HEVC.AC3/DTS-MA/Core] [Dubbing i Napisy PL] [ENG] Siedem potęg - Muk gong (2006)[BRRip x265 HEVC by alE13 AC3/DTS[Lektor i Napisy PL/ENG] [Chi] Noc demonów-Night of the Demons (1988)[BDRip.1080p.x265-HEVC-by alE13.AC3/DTS] [Lektor i Napisy PL/ENG] [ENG] Młode Strzelby/Young Guns (1988)[BDRip 1080p x265 HEVC by alE13 AC3/Dts] [Lektor i Napisy PL/ENG] [ENG]
Szczegóły torrenta
TRACKER
Tracker Podstawowy: http://tracker.filetracker.pl:8089/announce

Multitrackery:

http://tracker.filetracker.pl:8089/announce
http://torrent.gresille.org/announce.php
udp://exodus.desync.com:6969/announce
http://retracker.telecom.kz/announce
http://torrent.gresille.org/announce.php
http://torrent.gresille.org/announce.php
udp://inferno.demonoid.ph:3389/announce
http://retracker.telecom.kz/announce
http://announce.torrentsmd.com:8080/announce
http://tracker.filetracker.pl:8089/announce
http://tracker.torrenty.org:6969/announce
http://tracker.filetracker.pl:8089/announce
udp://tracker.aletorrenty.pl:2710/announce
http://torrent.gresille.org/announce
http://retracker.telecom.kz/announce.php
http://exodus.desync.com/announce
udp://open.demonii.com:1337/announce
udp://tracker.blackunicorn.xyz:6969/announce
udp://glotorrents.pw:6969/announce
udp://inferno.demonoid.ph:3389/announce
udp://tracker.ccc.de:80/announce

UAKTUALNIENIE
22/06/2019 10:46:04 (Jeśeli nie widac seeda kliknij na [uaktualnij] by odswieżyć statystyki).
[Lub sprawdź programem do pobierania torrentów, ponieważ niektóre trackery nie wyświetlają statystyk]
10 pliki
 
KOMENTARZE


buba14/10/2015 06.40.31
Wielka szkoda ze to x265 HEVC
Status użytkownika:   14/10/2015 06.40.31  TOP

DODAJ KOMENTARZ

Zaloguj się aby dodawać komentarze !!!



Wstecz








WRÓĆ NA GÓRĘ