FileTracker.PL - Darmowe polskie torrenty

Witaj drogi Towarzyszu!, jeżeli widzisz ten dymek to znaczy że nie jesteś zarejestrowany/zalogowany. Kliknij by się zarejestrować . Rejestracja zajmie mniej niż 30 sekund, a dzięki niej zyskasz możliwość pobierania, komentowania oraz dodawania torrentów !
User:  Hasło:     






Kategorie


Najczęściej pobierane w Czerwcu


Remonty i Wykończenia wnętrz-opolskie-dolnośląskie

Remonty i Wykończenia wnętrz-opolskie-dolnośląskie

Detale Torrenta


U.D.O.-Navy Metal Night (2015)[BRRip.4K ULTRA HD by alE13.AC3/DTS] [ENG]

S: 8L: 8P: 44
Dodał: alE13 Tracker:
Kondycja:Dodane:2015-08-25 06:53:40
Kategoria:Filmy UHD4K / x265  »  KoncertyRozmiar:5.75 GB
Język:Wersja ENG  Wersja ENG------------------
Obserwuj:OBSERWUJ TORRENTAStaty:UAKTUALNIJ TRACKER
Download: Pobierz TorrentRaport:RAPORTUJ TORRENTA




Uwaga film w wersji: 4K ULTRA HD.
Do odtworzenia potrzebny odpowiedni sprzęt TV.
Obraz i audio sprawdzono - na TV Medion Life X18019 (50 cali)

Na kompie można odtworzyć ten plik Zoom Playerem lub KM Playerem.


data: 2015
gatunek: dokument, heavy metal, orchestra
producent: AFM Records
zapis z dnia: 20-02-2014 (Stadthalle Tuttingen)
reżyseria: Oliver "Bomber" Barth
czas: 01:40:27



In February 2014, U.D.O. played a very special sold out show, accompanied by a German Navy Orchestra
(Marinemusikkorps Nordsee). The symphonic sound of the orchestra and the choir merged with the songs
of U.D.O. and made the evening a unique unforgettable experience for the audience.

This bombastic live event will now be made available for all fans of U.D.O., either on DVD or Blu Ray
plus 2 CDs.
And at this year’s WACKEN OPEN AIR, the unique musical collaboration can be seen live on stage again,
this time with the German Federal Armed Forces Orchestra.

Album koncertowy "Fratello Mare" jest wydany w dwóch wersjach - Blu-ray + 2CD, DVD + 2CD.
W lutym 2014 r U.D.O. wykonało specjalny pokaz w towarzystwie orkiestry marynarki niemieckiej
Nordsee Marinemusikkorps. Orkiestrę symfoniczną i chór połączono z piosenkami UDO, to był niezapomniany
wieczór dla zgromadzonej publiczności. Ten wspaniały pokaz teraz dostępny dla wszystkich fanów metalu...

http://postimg.org/image/u4m0m1fql/
http://postimg.org/image/mc0er6g31/
http://postimg.org/image/itoeusf71/
http://postimg.org/image/o6d98x33h/


Udo Dirkschneider: Vocals
Kasperi Heikkinen: Guitar
Andrey Smirnov: Guitar
Fitty Wienhold: Bass
Francesco Jovino: Drums
Corvin Banh: Keyboards

Orchestra Marinemusikkorps Nordsee, Wilhelmshaven
Dirigent: Fregattenkapitan Lutz Bammler




01. Das Boot
02. Future Land
03. Independence Day
04. Animal Instinct
05. The Hall of the Mountain King
06. Heart of Gold
07. Man and Machine
08. Dancing with an Angel (feat. Doro Pesch)
09. Faceless World
10. Ride
11. Days of Hope and Glory
12. Cut Me Out
13. Trainride in Russia (Poezd Po Rossii)
14. Stillness of Time
15. King of Mean
16. Book of Faith
17. Animal House



U.D.O. - Navy Metal Night (2015)-alE13.mkv
Format : Matroska
Format version : Version 4 / Version 2
File size : 4.88 GiB
Duration : 1h 40mn
Overall bit rate : 6 955 Kbps
Movie name : U.D.O. - Navy Metal Night (2015)-alE13
Encoded date : UTC 2015-08-25 03:56:18
Writing application : mkvmerge v8.3.0 ('Over the Horizon') 64bit
Writing library : libebml v1.3.1 + libmatroska v1.4.2
Attachements : Cover.jpg
DURATION : 01:40:22.752000000
NUMBER_OF_FRAMES : 188211
NUMBER_OF_BYTES : 337274112
_STATISTICS_WRITING_APP : mkvmerge v8.3.0 ('Over the Horizon') 64bit
_STATISTICS_WRITING_DATE_UT : 2015-08-25 03:56:18
_STATISTICS_TAGS : BPS DURATION NUMBER_OF_FRAMES NUMBER_OF_BYTES

Video
ID : 1
Format : HEVC
Format/INFO : High Efficiency Video Coding
Codec ID : V_MPEGH/ISO/HEVC
Duration : 1h 40mn
Bit rate : 4 859 Kbps
Width : 3 840 pixels
Height : 2 160 pixels
Display aspect ratio : 16:9
Frame rate mode : Constant
Frame rate : 25.000 fps
Bits/(Pixel*Frame) : 0.023
Stream size : 3.41 GiB (70%)
Title : U.D.O. - Navy Metal Night (2015)-alE13
Default : Yes
Forced : No

Audio #1
ID : 2
Format : DTS
Format/INFO : Digital Theater Systems
Mode : 16
Format settings, Endianness : Big
Codec ID : A_DTS
Duration : 1h 40mn
Bit rate mode : Constant
Bit rate : 1 509 Kbps
Channel(s) : 6 channels
Channel positions : Front: L C R, Side: L R, LFE
Sampling rate : 48.0 KHz
Bit depth : 24 bits
Compression mode : Lossy
Stream size : 1.06 GiB (22%)
Title : U.D.O. - Navy Metal Night (2015)-alE13_DTS 5.1 48KHz@1509kbps (24-bit)
Language : English
Default : Yes
Forced : No

Audio #2
ID : 3
Format : AC-3
Format/INFO : Audio Coding 3
Mode extension : CM (complete main)
Format settings, Endianness : Big
Codec ID : A_AC3
Duration : 1h 40mn
Bit rate mode : Constant
Bit rate : 448 Kbps
Channel(s) : 6 channels
Channel positions : Front: L C R, Side: L R, LFE
Sampling rate : 48.0 KHz
Compression mode : Lossy
Stream size : 322 MiB (6%)
Title : U.D.O. - Navy Metal Night (2015)-alE13AC3 5.1 48KHz@448kbps
Language : English
Default : No
Forced : No

Menu
00:00:00.000 : en:01. Das Boot
00:05:43.800 : en:02. Future Land
00:12:53.000 : en:03. Independence Day
00:18:40.840 : en:04. Animal Instinct
00:23:16.120 : en:05. The Hall of the Mountain King
00:26:53.440 : en:06. Heart of Gold
00:32:22.840 : en:07. Man and Machine
00:38:56.040 : en:08. Dancing with an Angel (feat. Doro Pesch)
00:44:05.600 : en:09. Faceless World
00:50:59.520 : en:10. Ride
00:55:09.840 : en:11. Days of Hope and Glory
01:00:30.000 : en:12. Cut Me Out
01:05:49.960 : en:13. Trainride in Russia (Poezd Po Rossii)
01:13:37.520 : en:14. Stillness of Time
01:20:13.400 : en:15. King of Mean
01:27:19.680 : en:16. Book of Faith
01:33:46.760 : en:17. Animal House


====================================================

PODOBNE TORRENTY
Komando Foki kontra Zombie-Navy SEALs vs. Zombies (2015)[BRRip.1080p.x265-HEVC by alE13.AC3] [Napisy PL] [ENG] Barwy Nocy-Color of night (Director's Cut) (1994)-alE13[BRRip 1080p x264 by alE13 AC3] [Lektor i Napisy PL/ENG] [ENG] Cicha Noc,Śmierci Noc 2/Silent Night, Deadly Night 2 (1987)[BRRip 1080p x264 by alE13 AC3] [Napisy PL/ENG] [ENG] The Best of Metal Clips 2015 (2016)[WebRip 1080p x264 by alE13 AC3] [ENG] Navy Seals kontra zombie - Navy Seals vs. Zombies *2015* [480p] [HDTV] [AC3] [XviD-NOiSE] [Lektor PL] Navy Seals kontra zombie - Navy Seals vs. Zombies (2015) [HDTV] [XviD] [MPEG] [Lektor PL] [H1]
Szczegóły torrenta
TRACKER
Tracker Podstawowy: http://tracker.filetracker.pl:8089/announce

Multitrackery:

http://tracker.filetracker.pl:8089/announce
http://torrent.gresille.org/announce.php
udp://exodus.desync.com:6969/announce
http://retracker.telecom.kz/announce
http://torrent.gresille.org/announce.php
http://torrent.gresille.org/announce.php
udp://inferno.demonoid.ph:3389/announce
http://retracker.telecom.kz/announce
http://announce.torrentsmd.com:8080/announce
http://tracker.filetracker.pl:8089/announce
http://tracker.torrenty.org:6969/announce
http://tracker.filetracker.pl:8089/announce
udp://tracker.aletorrenty.pl:2710/announce
http://torrent.gresille.org/announce
http://retracker.telecom.kz/announce.php
http://exodus.desync.com/announce
udp://open.demonii.com:1337/announce
udp://tracker.blackunicorn.xyz:6969/announce
udp://glotorrents.pw:6969/announce
udp://inferno.demonoid.ph:3389/announce
udp://tracker.ccc.de:80/announce

UAKTUALNIENIE
10/04/2019 08:32:18 (Jeśeli nie widac seeda kliknij na [uaktualnij] by odswieżyć statystyki).
[Lub sprawdź programem do pobierania torrentów, ponieważ niektóre trackery nie wyświetlają statystyk]
8 pliki
 
KOMENTARZE


Brak komentarzy...

DODAJ KOMENTARZ

Zaloguj się aby dodawać komentarze !!!



Wstecz








WRÓĆ NA GÓRĘ