FileTracker.PL - Darmowe polskie torrenty

Witaj drogi Towarzyszu!, jeżeli widzisz ten dymek to znaczy że nie jesteś zarejestrowany/zalogowany. Kliknij by się zarejestrować . Rejestracja zajmie mniej niż 30 sekund, a dzięki niej zyskasz możliwość pobierania, komentowania oraz dodawania torrentów !
User:  Hasło:     






Kategorie


Najczęściej pobierane w Styczniu


Remonty i Wykończenia wnętrz-opolskie-dolnośląskie

Remonty i Wykończenia wnętrz-opolskie-dolnośląskie

Detale Torrenta


Świat w ogniu / Angel Has Fallen (2019) [720p] [BluRay x264] [AAA] [ENG] [Napisy PL]

S: 27L: 23P: 114
Dodał: ~$Don_RIAS~ Tracker:
Kondycja:Dodane:2019-12-13 10:08:42
Kategoria:Filmy 720p / 1080p  »  AkcjaRozmiar:4.36 GB
Język:Napisy PL  Napisy PL------------------
Obserwuj:OBSERWUJ TORRENTAStaty:UAKTUALNIJ TRACKER
Download: Pobierz TorrentRaport:RAPORTUJ TORRENTA


Produkcja: USA
Gatunek: Thriller, Akcja
Premiera: 23 sierpnia 2019 (Polska), 21 sierpnia 2019 (świat)
Reżyseria: Ric Roman Waugh
Scenariusz: Array
NAPISY



Kod:
Bułgarski, Polski, Czeski, Francuski,
Hiszpański



Gerard Butler powraca jako agent Mike Banning, który tym razem musi stawić czoła FBI i innym tajnym służbom, w walce o swoje dobre imię i życie prezydenta. Po tragicznym ataku terrorystycznym w Londynie, zakrojona na szeroką skalę walka z terroryzmem wydaje się przynosić efekty. Agent Mike Banning wierzy, że najgorsze już za nim. Nie wie, że w najbliższym oto­czeniu prezydenta USA są ludzie, którzy chcieliby zmienić porządek panujący na świecie. Wkrótce prezydent znów staje się celem ataku dokonanego przy użyciu najnowocześniejszych technik wojskowych. Giną dziesiątki agentów, a życie głowy państwa wisi na włosku. O zaplanowanie zamachu oskarżony zostaje sam Banning. Ścigany przez wszystkie służby, musi udowodnić swoją niewinność i udaremnić kolejny decydujący atak. Jego jedynym sprzymierzeńcem jest dawno niewidziany ojciec, unikający cywilizacji były żołnierz, który wciąż wiele mógłby swojego syna nauczyć.



Gerard Butler .... Mike Banning
Morgan Freeman .... Allan Trumbull
Jada Pinkett Smith .... Agentka Thompson
Lance Reddick .... Dyrektor Secret Service David Gentry
Tim Blake Nelson .... Wiceprezydent Kirby
Piper Perabo .... Leah Banning
Nick Nolte .... Clay Banning
Danny Huston .... Wade Jennings




Cytuje:
General
Complete name : angel.has.fallen.2019.720p.bluray.x264-aaa.mkv
Format : Matroska
Format version : Version 4 / Version 2
File size : 4.36 GiB
Duration : 2h 1mn
Overall bit rate : 5 162 Kbps
Encoded date : UTC 2019-12-07 11:19:38
Writing application : mkvmerge v9.9.0 ('Pick Up') 32bit
Writing library : libebml v1.3.4 + libmatroska v1.4.5

Video
ID : 1
Format : AVC
Format/INFO : Advanced Video Codec
Format profile : High@L4.1
Format settings, CABAC : Yes
Format settings, ReFrames : 5 frames
Codec ID : V_MPEG4/ISO/AVC
Duration : 2h 1mn
Bit rate : 4 521 Kbps
Width : 1 280 pixels
Height : 536 pixels
Display aspect ratio : 2.40:1
Frame rate mode : Constant
Frame rate : 23.976 (24000/1001) fps
Color space : YUV
Chroma subsampling : 4:2:0
Bit depth : 8 bits
Scan type : Progressive
Bits/(Pixel*Frame) : 0.275
Stream size : 3.82 GiB (88%)
Writing library : x264 core 157 r2969 d4099dd
Encoding settings : cabac=1 / ref=5 / deblock=1:1:1 / analyse=0x3:0x133 / me=umh / subme=8 / psy=1 / psy_rd=1.00:0.00 / mixed_ref=1 / me_range=16 / chroma_me=1 / trellis=1 / 8x8dct=1 / cqm=0 / deadzone=21,11 / fast_pskip=0 / chroma_qp_offset=-2 / threads=17 / lookahead_threads=2 / sliced_threads=0 / nr=0 / decimate=1 / interlaced=0 / bluray_compat=0 / constrained_intra=0 / bframes=3 / b_pyramid=2 / b_adapt=2 / b_bias=0 / direct=3 / weightb=1 / open_gop=0 / weightp=2 / keyint=250 / keyint_min=23 / scenecut=40 / intra_refresh=0 / rc_lookahead=50 / rc=2p*censored* / mbtree=1 / bitrate=4521 / ratetol=1.0 / qcomp=0.60 / qpmin=0 / qpmax=69 / qpstep=4 / cplxblur=20.0 / qblur=0.5 / ip_ratio=1.40 / aq=1:1.00
Language : English
Default : Yes
Forced : No

Audio
ID : 2
Format : AC-3
Format/INFO : Audio Coding 3
Mode extension : CM (complete main)
Format settings, Endianness : Big
Codec ID : A_AC3
Duration : 2h 1mn
Bit rate mode : Constant
Bit rate : 640 Kbps
Channel(s) : 6 channels
Channel positions : Front: L C R, Side: L R, LFE
Sampling rate : 48.0 KHz
Frame rate : 31.250 fps (1536 spf)
Compression mode : Lossy
Stream size : 554 MiB (12%)
Language : English
Default : Yes
Forced : No

Text #1
ID : 3
Format : UTF-8
Codec ID : S_TEXT/UTF8
Codec ID/INFO : UTF-8 Plain Text
Duration : 1h 52mn
Bit rate : 94 bps
Count of elements : 1191
Stream size : 78.0 KiB (0%)
Language : Bulgarian
Default : Yes
Forced : No

Text #2
ID : 4
Format : UTF-8
Codec ID : S_TEXT/UTF8
Codec ID/INFO : UTF-8 Plain Text
Duration : 1h 52mn
Bit rate : 46 bps
Count of elements : 1123
Stream size : 38.7 KiB (0%)
Language : Polish
Default : No
Forced : No

Text #3
ID : 5
Format : UTF-8
Codec ID : S_TEXT/UTF8
Codec ID/INFO : UTF-8 Plain Text
Duration : 1h 51mn
Bit rate : 49 bps
Count of elements : 1348
Stream size : 40.3 KiB (0%)
Language : Spanish
Default : No
Forced : No

Text #4
ID : 6
Format : UTF-8
Codec ID : S_TEXT/UTF8
Codec ID/INFO : UTF-8 Plain Text
Duration : 1h 50mn
Bit rate : 73 bps
Count of elements : 1532
Stream size : 60.1 KiB (0%)
Language : French
Default : No
Forced : No

Text #5
ID : 7
Format : UTF-8
Codec ID : S_TEXT/UTF8
Codec ID/INFO : UTF-8 Plain Text
Duration : 1h 51mn
Bit rate : 58 bps
Count of elements : 1446
Stream size : 47.8 KiB (0%)
Language : Czech
Default : No
Forced : No




















====================================================

PODOBNE TORRENTY
 Świat w ogniu / Angel Has Fallen (2019) [MULTi] [720p] [BluRay] [x264] [DTS.AC3-KLiO] [Lektor i Napisy PL/ENG] Świat w ogniu-Angel Has Fallen *2019* [1080p] [BluRay] [x264-AAA] Napisy PL]  [zibi6248] Świat w ogniu / Angel Has Fallen (2019) [MULTi] [1080p] [BluRay] [x264] [DTS.AC3-KLiO] [Lektor i Napisy PL/ENG] Świat w ogniu - Angel Has Fallen *2019* [720p] [BluRay] [AC3] [x264-KiT] [Lektor PL]  Świat w ogniu / Angel Has Fallen (2019) [720p] [BluRay] [x264] [AC3-KiT] [Lektor PL] Świat w ogniu / Angel Has Fallen (2019) [720p] [BluRay] [x264] [AC3-KiT] [Lektor PL]
Szczegóły torrenta
TRACKER
Tracker Podstawowy: udp://tracker.opentrackr.org:1337/announce

Multitrackery:

udp://tracker.opentrackr.org:1337/announce
http://p2p-torrent.biz.st/announce.php?pid=b25d1a88159deed69a8cdfa89d78eef4
udp://tracker.internetwarriors.net:1337/announce
udp://tracker.coppersurfer.tk:6969/announce
udp://tracker.leechers-paradise.org:6969/announce
udp://tracker.torrent.eu.org:451/announce
udp://tracker.cyberia.is:6969/announce

UAKTUALNIENIE
18/12/2019 22:17:26 (Jeśeli nie widac seeda kliknij na [uaktualnij] by odswieżyć statystyki).
[Lub sprawdź programem do pobierania torrentów, ponieważ niektóre trackery nie wyświetlają statystyk]
3 pliki
 
KOMENTARZE


Brak komentarzy...

DODAJ KOMENTARZ

Zaloguj się aby dodawać komentarze !!!



Wstecz








WRÓĆ NA GÓRĘ