FileTracker.PL - Darmowe polskie torrenty

Witaj drogi Towarzyszu!, jeżeli widzisz ten dymek to znaczy że nie jesteś zarejestrowany/zalogowany. Kliknij by się zarejestrować . Rejestracja zajmie mniej niż 30 sekund, a dzięki niej zyskasz możliwość pobierania, komentowania oraz dodawania torrentów !
User:  Hasło:     






Kategorie


Najczęściej pobierane w Czerwcu


Remonty i Wykończenia wnętrz-opolskie-dolnośląskie

Remonty i Wykończenia wnętrz-opolskie-dolnośląskie

Detale Torrenta


Odwróceni. Ojcowie i córki S02E07 [720p.WEBRip.H.264.AC3] [PL]

S: 41L: 0P: 1452
Dodał: Lukarusi Tracker:
Kondycja:Dodane:2019-04-01 23:16:58
Kategoria:Seriale  »  KryminalneRozmiar:968.08 MB
Język:Polskie Seriale  Polskie Seriale------------------
Obserwuj:OBSERWUJ TORRENTAStaty:UAKTUALNIJ TRACKER
Download: Pobierz TorrentRaport:RAPORTUJ TORRENTA


produkcja: PL
gatunek: Kryminał, Dramat
reżyseria: Michał Gazda
scenariusz: Artur Kowalewski, Wojciech Zimiński
zdjęcia: Tomasz Augustynek
muzyka: Antoni Komasa-Łazarkiewicz
czas trwania: ok. 41 min.



Blacha i Sikora nie utrzymują już ze sobą kontaktu. "Pruszkowscy" gangsterzy są na wolności, odsiedzieli swoje wyroki i stali się legalni. Stary "Pruszków" nie istnieje. Ten, który go zlikwidował - komisarz Paweł Sikora - jest emerytowanym policjantem. Córka Sikory, Lidka poszła w ślady ojca i jest policjantką w Komendzie Stołecznej. Odwrócony przez Sikorę gangster Blacha został biznesmenem i świadkiem koronnym - celebrytą. Wydał kilkanaście książek o mafii i spija śmietankę ze swojej dawnej złej sławy. Jego córka Kasia właśnie skończyła z wyróżnieniem prawo. Jednak nierozwiązane wydarzenia z przeszłości niespodziewanie wracają do bohaterów. Śledztwo w sprawie serii brutalnych morderstw, które mogą mieć związek z przeszłością Blachy i Sikory, prowadzi córka Sikory - Lidka - razem ze swoim partnerem w policji Latą. Komisarz - emeryt Paweł Sikora i gangster - literat Blacha muszą znów współpracować, żeby przeżyć. Obaj doświadczą najbardziej elementarnego uczucia człowieka - lęku o własne dzieci.



Robert Więckiewicz - Jan "Blacha" Blachowski
Artur Żmijewski - Paweł Sikora
Joanna Balasz - Lidia Sikora
Eliza Rycembel - Katarzyna Blachowska
Tomasz Schuchardt - Policjant Lato
Małgorzata Foremniak - Mira Blachowska
Anna Dereszowska - Laura Różycka
Wojciech Zieliński - Arkadiusz Cyganik "Cyga"



Format : Matroska
Format version : Version 4 / Version 2
File size : 968 MiB
Duration : 41 min 40 s
Overall bit rate mode : Constant
Overall bit rate : 3 248 kb/s
Encoded date : UTC 2019-04-01 21:10:48

Video
ID : 1
Format : AVC
Format/INFO : Advanced Video Codec
Format profile : High@L3.1
Format settings : CABAC / 5 Ref Frames
Format settings, CABAC : Yes
Format settings, ReFrames : 5 frames
Codec ID : V_MPEG4/ISO/AVC
Duration : 41 min 40 s
Bit rate mode : Constant
Bit rate : 3 000 kb/s
Width : 1 280 pixels
Height : 720 pixels
Display aspect ratio : 16:9
Frame rate mode : Constant
Frame rate : 25.000 FPS
Color space : YUV
Chroma subsampling : 4:2:0
Bit depth : 8 bits
Scan type : Progressive
Bits/(Pixel*Frame) : 0.130
Stream size : 853 MiB (88%)
Default : Yes
Forced : Yes

Audio
ID : 2
Format : AC-3
Format/INFO : Audio Coding 3
Commercial name : Dolby Digital
Codec ID : A_AC3
Duration : 41 min 40 s
Bit rate mode : Constant
Bit rate : 384 kb/s
Channel(s) : 2 channels
Channel layout : L R
Sampling rate : 48.0 kHz
Frame rate : 31.250 FPS (1536 SPF)
Bit depth : 16 bits
Compression mode : Lossy
Stream size : 114 MiB (12%)
Language : Polish
Service kind : Complete Main
Default : Yes
Forced : Yes

====================================================

PODOBNE TORRENTY
Odwróceni - Ojcowie i córki *2019* [S02E07] [1080p.WEBRip.x264-666] [PL] [Alusia] Odwróceni. Ojcowie i córki S02E07-08 [1080p.WEB-DL.H.264.AC3] [PL] Odwróceni. Ojcowie i córki S02E07-08 [2160p.WEB-DL.H.264.AC3] [PL] Odwróceni. Ojcowie i córki S02E06 [720p.WEBRip.H.264.AC3] [PL] Odwróceni. Ojcowie i córki S02E08 [720p.WEBRip.H.264.AC3] [PL] Odwróceni - Ojcowie i Córki *2019* [S01E01-02] [WEBRip] [XviD-B666] [PL]
Szczegóły torrenta
TRACKER
Tracker Podstawowy: http://tracker1.itzmx.com:8080/announce

Multitrackery:

http://tracker1.itzmx.com:8080/announce
http://tracker.vanitycore.co:6969/announce
http://tracker.city9x.com:2710/announce
http://agusiq-torrents.pl:6969/announce
http://tracker.filetracker.pl:8089/announce
http://tracker.torrentyorg.pl/announce
udp://tracker.publicbt.com/announce
udp://9.rarbg.com:2740/announce
udp://t1.pow7.com/announce
udp://tracker.torrentbay.to:6969/announce
udp://tracker.prq.to/announce
udp://tracker.istole.it:80/announce
udp://exodus.desync.com:6969/announce
udp://tracker.leechers-paradise.org:6969/announce
udp://9.rarbg.me:2790/announce
http://retracker.omsk.ru:2710/announce
udp://shadowshq.eddie4.nl:6969/announce
http://mgtracker.org:2710/announce
http://tracker.tfile.me/announce
udp://tracker.glotorrents.com:6969/announce
udp://eddie4.nl:6969/announce
udp://torrent.gresille.org:80/announce
udp://poloniumsurfer.tk:6969/announce
udp://tracker.pomf.se:80/announce
udp://sugoi.pomf.se:80/announce
udp://tracker.openbittorrent.com:80/announce
udp://10.rarbg.com/announce

UAKTUALNIENIE
24/05/2019 07:42:51 (Jeśeli nie widac seeda kliknij na [uaktualnij] by odswieżyć statystyki).
[Lub sprawdź programem do pobierania torrentów, ponieważ niektóre trackery nie wyświetlają statystyk]
1 file
 
KOMENTARZE


~$jacanied~07/04/2019 21.38.17
Czy będzie w 4K?
Status użytkownika:   07/04/2019 21.38.17  TOP

DODAJ KOMENTARZ

Zaloguj się aby dodawać komentarze !!!



Wstecz








WRÓĆ NA GÓRĘ