FileTracker.PL - Darmowe polskie torrenty

Witaj drogi Towarzyszu!, jeżeli widzisz ten dymek to znaczy że nie jesteś zarejestrowany/zalogowany. Kliknij by się zarejestrować . Rejestracja zajmie mniej niż 30 sekund, a dzięki niej zyskasz możliwość pobierania, komentowania oraz dodawania torrentów !
User:  Hasło:     






Kategorie


Najczęściej pobierane w Maju


Detale Torrenta


Odwróceni - Sezon 1 [1080p.WEB-DL.H.264.AC3] [PL]

S: 219L: 105P: 289
Dodał: Lukarusi Tracker:
Kondycja:Dodane:2019-03-14 19:19:37
Kategoria:Seriale  »  KryminalneRozmiar:34.17 GB
Język:Polskie Seriale  Polskie SerialePobrali:POBRALI PLIK
Obserwuj:OBSERWUJ TORRENTAStaty:UAKTUALNIJ TRACKER
Download: Pobierz TorrentRaport:RAPORTUJ TORRENTA


produkcja: PL
gatunek: Kryminał, Sensacyjny, Gangsterski
reżyseria: Michał Gazda, Jacek Filipiak, Jarosław Sypniewski
scenariusz: Artur Kowalewski, Piotr Pytlakowski
zdjęcia: Tomasz Augustynek, Jan Holoubek
muzyka: Łukasz Targosz
czas trwania: ok. 40-49 min.



"Odwróceni" jest serialem sensacyjnym inspirowanym prawdziwymi wydarzeniami. Dobro i zło, miłość i zdrada, życie oraz śmierć to główne tematy serialu. "Odwróceni" to 13 odcinkowa historia o losach bezwzględnego gangstera i policjanta. Osoby z pozoru tak różne łączy jedna rzecz. Miłość i przywiązanie do rodziny, a co za tym idzie związane z nią poświęcenia. Główny bohater, podinspektor Sikora, zajmuje się rozpracowywaniem mafii pruszkowskiej i wołomińskiej. Jego celem jest posadzenie bandytów na ławie oskarżonych. Jednak aby tego dokonać, potrzebuje pomocy. Jedynym sposobem na jej uzyskanie jest współpraca z "Blachą". Czy jednak policjantowi uda się "odwrócić" groźnego przestępcę? A może to on sam zostanie "odwrócony" na stronę mafii? Serial "Odwróceni" pokazuje drugie oblicze stróżów prawa jak również gangsterów. Zabójstwa, kradzieże, pościgi i aresztowania to ich życie zawodowe. W domu czekają na nich rozterki, problemy i kochająca rodzina. Co okaże się dla nich ważniejsze? Czy "odwrócą" swoje życie na dobrą stronę?



Robert Więckiewicz - Jan "Blacha" Blachowski
Artur Żmijewski - Paweł Sikora
Małgorzata Foremniak - Mira Blachowska, żona "Blachy"
Anna Radwan - Joanna Sikora, żona Pawła
Andrzej Zieliński - Andrzej Basiak "Mnich"
Maciej Kozłowski - Roman Kraus "Szybki"
Andrzej Grabowski - Jarosław Kowalik "Kowal"
Janusz Chabior - Ryszard Nowak "Rysiek"
Szymon Bobrowski - Władysław Różycki "Skalpel"
Marian Dziędziel - Franciszek Żuk "Ptasiek"
Wojciech Zieliński - Arkadiusz Cyganik "Cyga"



Format : Matroska
Format version : Version 4 / Version 2
File size : 2.87 GiB
Duration : 48 min 48 s
Overall bit rate mode : Variable
Overall bit rate : 8 409 kb/s
Encoded date : UTC 2019-03-13 13:33:51

Video
ID : 1
Format : AVC
Format/INFO : Advanced Video Codec
Format profile : High@L4.1
Format settings : CABAC / 4 Ref Frames
Format settings, CABAC : Yes
Format settings, ReFrames : 4 frames
Codec ID : V_MPEG4/ISO/AVC
Duration : 48 min 48 s
Bit rate mode : Variable
Bit rate : 8 023 kb/s
Maximum bit rate : 12.0 Mb/s
Width : 1 920 pixels
Height : 1 080 pixels
Display aspect ratio : 16:9
Frame rate mode : Constant
Frame rate : 25.000 FPS
Color space : YUV
Chroma subsampling : 4:2:0
Bit depth : 8 bits
Scan type : Progressive
Bits/(Pixel*Frame) : 0.155
Stream size : 2.74 GiB (95%)
Default : Yes
Forced : Yes
Color range : Limited
Color primaries : BT.709
Transfer characteristics : BT.709
Matrix coefficients : BT.709

Audio
ID : 2
Format : AC-3
Format/INFO : Audio Coding 3
Commercial name : Dolby Digital
Codec ID : A_AC3
Duration : 48 min 48 s
Bit rate mode : Constant
Bit rate : 384 kb/s
Channel(s) : 2 channels
Channel layout : L R
Sampling rate : 48.0 kHz
Frame rate : 31.250 FPS (1536 SPF)
Bit depth : 16 bits
Compression mode : Lossy
Stream size : 134 MiB (5%)
Language : Polish
Service kind : Complete Main
Default : Yes
Forced : Yes

====================================================

PODOBNE TORRENTY
Odwróceni *2007* Sezon 1 [1080p.WEBRip.x264-666] [PL] [Alusia] Odwróceni - Ojcowie i córki *2019* Sezon 2 [1080p.WEBRip.x264-666] [PL] [Alusia] Odwróceni (2007) [Sezon 1] [480p] [WEBRip] [x264-666] [Polska Produkcja] Odwróceni - Ojcowie i córki *2019* [Sezon 02 E01 + 02] [720p] [WEB-DL] [XviD-PARAMEDiC] [Serial PL.] [zibi6248] Odwróceni.Ojcowie i córki *2019* (SEZON 2 E01+E02) [4K] [2160p] [UHD] [WEB-DL] [x264-B89] [Polski Serial] [zibi6248] Odwróceni Ojcowie i córki *2019* (SEZON 2 E03) [4K] [2160p] [UHD] [WEB-DL] [x264-B89] [Polski Serial] [zibi6248]
Szczegóły torrenta
TRACKER
Tracker Podstawowy: http://tracker1.itzmx.com:8080/announce

Multitrackery:

http://tracker1.itzmx.com:8080/announce
http://tracker.vanitycore.co:6969/announce
http://tracker.city9x.com:2710/announce
http://agusiq-torrents.pl:6969/announce
http://tracker.filetracker.pl:8089/announce
http://tracker.torrentyorg.pl/announce
udp://tracker.publicbt.com/announce
udp://9.rarbg.com:2740/announce
udp://t1.pow7.com/announce
udp://tracker.torrentbay.to:6969/announce
udp://tracker.prq.to/announce
udp://tracker.istole.it:80/announce
udp://exodus.desync.com:6969/announce
udp://tracker.leechers-paradise.org:6969/announce
udp://9.rarbg.me:2790/announce
http://retracker.omsk.ru:2710/announce
udp://shadowshq.eddie4.nl:6969/announce
http://mgtracker.org:2710/announce
http://tracker.tfile.me/announce
udp://tracker.glotorrents.com:6969/announce
udp://eddie4.nl:6969/announce
udp://torrent.gresille.org:80/announce
udp://poloniumsurfer.tk:6969/announce
udp://tracker.pomf.se:80/announce
udp://sugoi.pomf.se:80/announce
udp://tracker.openbittorrent.com:80/announce
udp://10.rarbg.com/announce

UAKTUALNIENIE
30/03/2019 11:43:19 (Jeśeli nie widac seeda kliknij na [uaktualnij] by odswieżyć statystyki).
[Lub sprawdź programem do pobierania torrentów, ponieważ niektóre trackery nie wyświetlają statystyk]
13 pliki
 
KOMENTARZE


Brak komentarzy...

DODAJ KOMENTARZ

Zaloguj się aby dodawać komentarze !!!



Wstecz








WRÓĆ NA GÓRĘ