FileTracker.PL - Darmowe polskie torrenty

Witaj drogi Towarzyszu!, jeżeli widzisz ten dymek to znaczy że nie jesteś zarejestrowany/zalogowany. Kliknij by się zarejestrować . Rejestracja zajmie mniej niż 30 sekund, a dzięki niej zyskasz możliwość pobierania, komentowania oraz dodawania torrentów !
User:  Hasło:     






Kategorie


Najczęściej pobierane w Maju


Detale Torrenta


Oszuści - Imposters S02E10 [FiNAL] [480p] [WEB-DL] [DD2.0] [XviD-Ralf] [Lektor PL]    [ts559]

S: 0L: 3P: 100
Dodał: Wolverine Tracker:
Kondycja:Dodane:2019-03-13 18:28:35
Kategoria:Seriale  »  DramatRozmiar:620.10 MB
Język:Lektor PL  Lektor PLPobrali:POBRALI PLIK
Obserwuj:OBSERWUJ TORRENTAStaty:UAKTUALNIJ TRACKER
Download: Pobierz TorrentRaport:RAPORTUJ TORRENTA
==================
...::: INFO :::...
==================

Produkcja: USA
Stacja TV: Bravo
Gatunek: Komedia | Dramat
Premiera 2 Sezonu: 06.04.2018 r. - Świat
Czas trwania: ok.44 min.
Twórca: Adam Brooks | Paul Adelstein

==================
...::: OPIS :::...
==================

Fabuła serialu Imposters skupia się na oszustce, która rozkochuje w sobie mężczyzn i kobiety, poślubia ich i ucieka z ich pieniędzmi, upewniając się wcześniej, że nie zgłoszą tego na policję. Trzy osoby spośród jej ofiar postanawiają połączyć siły i ją odnaleźć.

==============
...::: OBSADA :::...
==============

Inbar Lavi jako Maddie/Ava/Alice/CeCe/Saffron
Rob Heaps jako Ezra Bloom
Parker Young jako Richard
Marianne Rendón jako Julia "Jules" Langmore
Stephen Bishop jako Patrick Campbell
Brian Benben jako Max
Katherine LaNasa jako Sally

=======================
...::: DANE TECHNICZNE :::...
=======================

Format : AVI
Format/INFO : Audio Video Interleave
Format profile : OpenDML
Format settings : rec
File size : 608 MiB
Duration : 42 min 31 s
Overall bit rate : 2 000 kb/s
Writing application : AVI-Mux GUI 1.17.8.3, Feb 16 201019:42:50

Video
ID : 0
Format : MPEG-4 Visual
Format profile : Advanced Simple@L5
Format settings : BVOP2
Format settings, BVOP : 2
Format settings, QPel : No
Format settings, GMC : No warppoints
Format settings, Matrix : Default (H.263)
Codec ID : XVID
Codec ID/Hint : XviD
Duration : 42 min 31 s
Bit rate : 1 611 kb/s
Width : 720 pixels
Height : 400 pixels
Display aspect ratio : 16:9
Frame rate : 23.976 (24000/1001) FPS
Original frame rate : 23.976 (23976/1000) FPS
Color space : YUV
Chroma subsampling : 4:2:0
Bit depth : 8 bits
Scan type : Progressive
Compression mode : Lossy
Bits/(Pixel*Frame) : 0.233
Stream size : 490 MiB (81%)
Writing library : XviD 67

Audio
ID : 1
Format : AC-3
Format/INFO : Audio Coding 3
Commercial name : Dolby Digital
Codec ID : 2000
Duration : 42 min 30 s
Bit rate mode : Constant
Bit rate : 384 kb/s
Channel(s) : 2 channels
Channel layout : L R
Sampling rate : 48.0 kHz
Frame rate : 31.250 FPS (1536 SPF)
Bit depth : 16 bits
Compression mode : Lossy
Stream size : 117 MiB (19%)
Alignment : Aligned on interleaves
Interleave, duration : 64 ms (1.54 video frames)
Interleave, preload duration : 192 ms
Title : Imposters.S02E01.Fillion.Bollar.King
Service kind : Complete Main

====================================================

PODOBNE TORRENTY
Oszuści - Imposters S02E01-04 [480p] [WEB-DL] [DD2.0] [XviD-Ralf] [Lektor PL]   [ts559] Oszuści - Imposters S02E05 [480p] [WEB-DL] [DD2.0] [XviD-Ralf] [Lektor PL] [ts559] Oszuści - Imposters S02E06 [480p] [WEB-DL] [DD2.0] [XviD-Ralf] [Lektor PL] [ts559] Oszuści - Imposters S02E07-09 [480p] [WEB-DL] [DD2.0] [XviD-Ralf] [Lektor PL] [ts559] Motyw - Motive S02E10-13 [FiNAL] [480p] [AMZN] [WEBRip] [DD2.0] [XviD-Ralf] [Lektor PL] [ts559] Beyond S02E10 [FiNAL] [480p] [WEBRip] [x264-666] [Lektor PL] [ts559]
Szczegóły torrenta
TRACKER
Tracker Podstawowy: udp://tracker.opentrackr.org:1337/announce

Multitrackery:

udp://tracker.opentrackr.org:1337/announce
http://open.kickasstracker.com/announce
http://tracker.city9x.com:2710/announce
http://tracker2.itzmx.com:6961/announce
udp://tracker.pirateparty.gr:6969/announce
udp://tracker.leechers-paradise.org:6969/announce
udp://tracker.coppersurfer.tk:6969/announce
udp://eddie4.nl:6969/announce
udp://shadowshq.eddie4.nl:6969/announce

UAKTUALNIENIE
10/04/2019 01:50:43 (Jeśeli nie widac seeda kliknij na [uaktualnij] by odswieżyć statystyki).
[Lub sprawdź programem do pobierania torrentów, ponieważ niektóre trackery nie wyświetlają statystyk]
6 pliki
 
KOMENTARZE


Brak komentarzy...

DODAJ KOMENTARZ

Zaloguj się aby dodawać komentarze !!!



Wstecz








WRÓĆ NA GÓRĘ