FileTracker.PL - Darmowe polskie torrenty

Witaj drogi Towarzyszu!, jeżeli widzisz ten dymek to znaczy że nie jesteś zarejestrowany/zalogowany. Kliknij by się zarejestrować . Rejestracja zajmie mniej niż 30 sekund, a dzięki niej zyskasz możliwość pobierania, komentowania oraz dodawania torrentów !
User:  Hasło:     






Kategorie


Najczęściej pobierane w Marcu


Detale Torrenta


Max (2015) [AC3] [BRRip.XviD]-NN [Lektor PL]

S: 1L: 2P: 51
Dodał: Adam26 Tracker:
Kondycja:Dodane:2019-01-12 19:32:56
Kategoria:Filmy DivX / XviD  »  FamilijneRozmiar:1.30 GB
Język:Lektor PL  Lektor PLPobrali:POBRALI PLIK
Obserwuj:OBSERWUJ TORRENTAStaty:UAKTUALNIJ TRACKER
Download: Pobierz TorrentRaport:RAPORTUJ TORRENTA
Pobrałeś/aś podziękuj To nic nie kosztuje a Motywuje!!

NA PROSBĘ OfiaraLosu



produkcja:USA
reżyseria:Boaz Yakin
scenariusz:Sheldon Lettich Boaz Yakin
premiera:29 stycznia 2015 (świat)
gatunek:Familijny Przygodowy




https://www.filmweb.pl/film/Max-2015-715815



Wyszkolony pies Max służył w Afganistanie. Stał się nerwowy i nieposłuszny, gdy opiekujący się nim żołnierz (Robbie Amell) zginął na froncie. Pies trafił wówczas do rodziny zmarłego. Zmagający się z własnymi problemami nastoletni brat żołnierza, Justin (Josh Wiggins), początkowo nie akceptuje psa. Z czasem jednak się z nim zaprzyjaźnia. Ciepły film familijny o więzi łączącej psa i człowieka. W roli głównej wystąpił Josh Wiggins, nominowany za swoją kreację do Nagrody Młodych Artystów.



Josh Wiggins ....... Justin
Lauren Graham ....... Pamela
Joseph Julian Soria ....... Emilio
Luke Kleintank ....... Tyler Harne
Thomas Haden Church ....... Ray
Robbie Amell ....... Kyle Wincott
Owen Harn ....... Stack



File size : 1.30 GiB
Duration : 1 h 46 min
Overall bit rate : 1 744 kb/s

Video
Codec ID/Hint : XviD
Duration : 1 h 46 min
Bit rate : 1 542 kb/s
Width : 720 pixels
Height : 304 pixels
Display aspect ratio : 2.35:1
Frame rate : 25.000 FPS
Stream size : 1.15 GiB (88%)

Audio
Format : AC-3
Bit rate : 192 kb/s
Channel(s) : 2 channels
Channel positions : Front: L R
Sampling rate : 48.0 kHz
Stream size : 146 MiB (11%)

https://www.youtube.com/watch?v=6EPPMCwD5bw

====================================================

PODOBNE TORRENTY
Max *2015* [BRRIP XviD - [Lektor PL IVO] Boy 7 *2015* [BRRIP XviD] [Lektor PL IVO] Ant-Man *2015* [BRRip.Xvid-J25] [Lektor PL] Ip Man 3 / Yip Man 3 (2015) [BRRiP] [XViD.AC3-K12] [Lektor PL] Un + une - Un PLus une *2015* [BRRip] [XViD-MX] [Lektor PL] Max (2015) [AC3] [BRRip.XviD]-NN [Lektor PL] [D.T.A 26]
Szczegóły torrenta
TRACKER
Tracker Podstawowy: http://tracker.tfile.co:80/announce

Multitrackery:

http://tracker.tfile.co:80/announce
http://tracker.torrentyorg.pl/announce
udp://retracker.lanta-net.ru:2710/announce
udp://tracker.coppersurfer.tk:6969/announce
udp://tracker.pirateparty.gr:6969/announce
udp://ipv4.tracker.harry.lu:80/announce
udp://62.138.0.158:6969/announce
udp://9.rarbg.to:2710/announce
udp://9.rarbg.me:2780/announce
udp://tracker.coppersurfer.tk:80/announce

UAKTUALNIENIE
13/03/2019 10:48:08 (Jeśeli nie widac seeda kliknij na [uaktualnij] by odswieżyć statystyki).
[Lub sprawdź programem do pobierania torrentów, ponieważ niektóre trackery nie wyświetlają statystyk]
6 pliki
 
KOMENTARZE


Brak komentarzy...

DODAJ KOMENTARZ

Zaloguj się aby dodawać komentarze !!!



Wstecz








WRÓĆ NA GÓRĘ