FileTracker.PL - Darmowe polskie torrenty

Witaj drogi Towarzyszu!, jeżeli widzisz ten dymek to znaczy że nie jesteś zarejestrowany/zalogowany. Kliknij by się zarejestrować . Rejestracja zajmie mniej niż 30 sekund, a dzięki niej zyskasz możliwość pobierania, komentowania oraz dodawania torrentów !
User:  Hasło:     






Kategorie


Najczęściej pobierane w Styczniu


Detale Torrenta


Ucho Prezesa S04E06-08 (ODC. 50-52) [1080p.WEB-DL.H.264.AC3] [PL]

S: 62L: 7P: 881
Dodał: Lukarusi Tracker:
Kondycja:Dodane:2019-01-03 18:36:33
Kategoria:Seriale  »  KomedioweRozmiar:2.47 GB
Język:Polskie Seriale  Polskie SerialePobrali:POBRALI PLIK
Obserwuj:OBSERWUJ TORRENTAStaty:UAKTUALNIJ TRACKER
Download: Pobierz TorrentRaport:RAPORTUJ TORRENTA


produkcja: PL
gatunek: Komedia
twórca: Robert Górski
reżyseria: Tadeusz Śliwa
czas trwania: ok. 14 min.



Satyryczny serial o polskiej polityce rozgrywa się w wyobrażonym gabinecie prezesa, gdzie pani Basia i Mariusz troszczą się o prezesa, jak tylko potrafią. W każdym odcinku gabinet odwiedzają goście, którzy chcieliby szepnąć coś prezesowi na ucho.



Robert Górski - Prezes Jarosław
Mikołaj Cieślak - Mariusz
Izabela Dąbrowska - pani Basia
Michał Czernecki - prezes telewizji Jacek
Robert Majewski - prezes Rady Mediów Narodowych
Paweł Koślik - prezydent
Wojciech Kalarus - Antoni, minister wojny
Grzegorz Ciągardlak - Misio
Sebastian Stankiewicz - pan Tomek, syn pani Basi
Sebastian Konrad - wicepremier, minister rozwoju
Katarzyna Żak - Jola pielęgniarka
Agnieszka Wosińska - rzecznik Beata
Adam Krawczuk - Adam od PR-u
Magdalena Smalara - Ania, minister edukacji



Format : Matroska
Format version : Version 4 / Version 2
File size : 836 MiB
Duration : 14 min 4 s
Overall bit rate mode : Variable
Overall bit rate : 8 311 kb/s
Encoded date : UTC 2018-12-29 14:47:13

Video
ID : 1
Format : AVC
Format/INFO : Advanced Video Codec
Format profile : High@L4
Format settings : CABAC / 4 Ref Frames
Format settings, CABAC : Yes
Format settings, ReFrames : 4 frames
Codec ID : V_MPEG4/ISO/AVC
Duration : 14 min 4 s
Bit rate mode : Variable
Bit rate : 7 925 kb/s
Maximum bit rate : 12.0 Mb/s
Width : 1 920 pixels
Height : 800 pixels
Display aspect ratio : 2.40:1
Frame rate mode : Constant
Frame rate : 29.970 (29970/1000) FPS
Original frame rate : 29.970 (30000/1001) FPS
Color space : YUV
Chroma subsampling : 4:2:0
Bit depth : 8 bits
Scan type : Progressive
Bits/(Pixel*Frame) : 0.172
Stream size : 798 MiB (95%)
Default : Yes
Forced : Yes
Color range : Limited
Color primaries : BT.709
Transfer characteristics : BT.709
Matrix coefficients : BT.709

Audio
ID : 2
Format : AC-3
Format/INFO : Audio Coding 3
Codec ID : A_AC3
Duration : 14 min 4 s
Bit rate mode : Constant
Bit rate : 384 kb/s
Channel(s) : 2 channels
Channel positions : Front: L R
Sampling rate : 48.0 kHz
Frame rate : 31.250 FPS (1536 SPF)
Bit depth : 16 bits
Compression mode : Lossy
Stream size : 38.6 MiB (5%)
Language : Polish
Service kind : Complete Main
Default : Yes
Forced : Yes

====================================================

PODOBNE TORRENTY
Ucho Prezesa S03E04 (ODC. 34) - IV RP/II PRL [1080p.WEB-DL.H.264.AC3] [PL] Ucho Prezesa S03E07-08 (ODC. 37-38) [1080p.WEB-DL.H.264.AC3] [PL] Ucho Prezesa S04E04-05 (ODC. 48-49) [1080p.WEB-DL.H.264.AC3] [PL] Ucho Prezesa odc. 26 - Kto kogo? [1080p.WEBRip.H.264.AC3] [PL] Ucho Prezesa odc. 28 - Kochajmy się [1080p.WEBRip.H.264.AC3] [PL] Ucho Prezesa odc. 29 - Jaromir K. [1080p.WEBRip.H.264.AC3] [PL]
Szczegóły torrenta
TRACKER
Tracker Podstawowy: http://tracker.city9x.com:2710/announce

Multitrackery:

http://tracker.city9x.com:2710/announce
http://tracker.filetracker.pl:8089/announce
http://agusiq-torrents.pl:6969/announce
http://tracker.vanitycore.co:6969/announce
http://tracker.torrentyorg.pl/announce
udp://tracker.publicbt.com/announce
udp://9.rarbg.com:2800/announce
udp://t1.pow7.com/announce
udp://tracker.torrentbay.to:6969/announce
udp://tracker.prq.to/announce
udp://tracker.istole.it:80/announce
udp://exodus.desync.com:6969/announce
udp://tracker.leechers-paradise.org:6969/announce
udp://9.rarbg.me:2740/announce
http://retracker.omsk.ru:2710/announce
udp://shadowshq.eddie4.nl:6969/announce
http://mgtracker.org:2710/announce
http://tracker.tfile.me/announce
udp://tracker.glotorrents.com:6969/announce
udp://eddie4.nl:6969/announce
udp://torrent.gresille.org:80/announce
udp://poloniumsurfer.tk:6969/announce
udp://tracker.pomf.se:80/announce
udp://sugoi.pomf.se:80/announce
udp://tracker.openbittorrent.com:80/announce
udp://10.rarbg.com/announce

UAKTUALNIENIE
08/01/2019 16:39:18 (Jeśeli nie widac seeda kliknij na [uaktualnij] by odswieżyć statystyki).
[Lub sprawdź programem do pobierania torrentów, ponieważ niektóre trackery nie wyświetlają statystyk]
3 pliki
 
KOMENTARZE


~$bojar~04/01/2019 13.16.43
wstawisz "Ray Donovan" następne odcinki?
Status użytkownika:   04/01/2019 13.16.43  TOP
Evilred04/01/2019 01.45.30
Dzięki stary za ropa
Status użytkownika:   04/01/2019 01.45.30  TOP

DODAJ KOMENTARZ

Zaloguj się aby dodawać komentarze !!!



Wstecz








WRÓĆ NA GÓRĘ