FileTracker.PL - Darmowe polskie torrenty

Witaj drogi Towarzyszu!, jeżeli widzisz ten dymek to znaczy że nie jesteś zarejestrowany/zalogowany. Kliknij by się zarejestrować . Rejestracja zajmie mniej niż 30 sekund, a dzięki niej zyskasz możliwość pobierania, komentowania oraz dodawania torrentów !
User:  Hasło:     






Kategorie


Najczęściej pobierane w Grudniu


Remonty i Wykończenia wnętrz-opolskie-dolnośląskie

Remonty i Wykończenia wnętrz-opolskie-dolnośląskie

Detale Torrenta


Batman Trylogia (Batman Begins, The Dark Knight, The Dark Knight Rises) (1080p) (DTS) (60FPS) (Lektor i Napisy PL)

S: 0L: 0P: 83
Dodał: Wolverine Tracker:
Kondycja:Dodane:2018-12-26 23:54:16
Kategoria:Filmy X264 / H264  »  AkcjaRozmiar:33.76 GB
Język:Lektor PL  Lektor PL------------------
Obserwuj:OBSERWUJ TORRENTAStaty:UAKTUALNIJ TRACKER
Download: Pobierz TorrentRaport:RAPORTUJ TORRENTA


reżyseria: Christopher Nolan
scenariusz: Christopher Nolan, David S. Goyer
gatunek: Akcja, Sci-Fi
produkcja: USA, Wielka Brytania
premiera: 29 lipca 2005 (Polska) 31 maja 2005 (świat)



Historia milionera Bruce'a Wayne'a, który przemienia się w Batmana – postrach przestępców Gotham City.



Christian Bale jako Bruce Wayne / Batman
Michael Caine jako Alfred J. Pennyworth
Liam Neeson jako Henri Ducard / Ra's Al Ghul
Gary Oldman jako Sierżant James Gordon
Katie Holmes jako Rachel Dawes
Morgan Freeman jako Lucius Fox
Cillian Murphy jako Dr Jonathan Crane / Strach na Wróble
Tom Wilkinson jako Carmine Falcone



Batman Begins
Video
ID : 1
Format : HEVC
Format/INFO : High Efficiency Video Coding
Format profile : Main@L4@High
Codec ID : V_MPEGH/ISO/HEVC
Duration : 2 h 20 min
Bit rate : 6 134 kb/s
Width : 1 920 pixels
Height : 800 pixels
Display aspect ratio : 2.40:1
Frame rate mode : Constant
Frame rate : 59.940 (60000/1001) FPS
Color space : YUV
Chroma subsampling : 4:2:0
Bit depth : 8 bits
Bits/(Pixel*Frame) : 0.067
Stream size : 6.00 GiB (55%)
Default : Yes
Forced : No

Audio #1
ID : 3
Format : DTS
Format/INFO : Digital Theater Systems
Format profile : MA / Core
Mode : 16
Format settings, Endianness : Big
Codec ID : A_DTS
Duration : 2 h 20 min
Bit rate mode : Variable / Constant
Bit rate : 4 382 kb/s / 1 509 kb/s
Channel(s) : 6 channels
Channel positions : Front: L C R, Side: L R, LFE
Sampling rate : 48.0 kHz
Frame rate : 93.750 FPS (512 spf)
Bit depth : 24 bits
Compression mode : Lossless / Lossy
Stream size : 4.29 GiB (39%)
Language : English
Default : Yes
Forced : No

Audio #2
ID : 4
Format : AC-3
Format/INFO : Audio Coding 3
Mode extension : CM (complete main)
Format settings, Endianness : Big
Codec ID : A_AC3
Duration : 2 h 20 min
Bit rate mode : Constant
Bit rate : 640 kb/s
Channel(s) : 6 channels
Channel positions : Front: L C R, Side: L R, LFE
Sampling rate : 48.0 kHz
Frame rate : 31.250 FPS (1536 spf)
Bit depth : 16 bits
Compression mode : Lossy
Delay relative to video : 201 ms
Stream size : 641 MiB (6%)
Title : Polski
Language : Polish
Default : No
Forced : No

The Dark Knight
Video
ID : 3
Format : HEVC
Format/INFO : High Efficiency Video Coding
Format profile : Main@L4.1@Main
Codec ID : V_MPEGH/ISO/HEVC
Duration : 2 h 32 min
Bit rate : 4 721 kb/s
Width : 1 920 pixels
Height : 1 080 pixels
Display aspect ratio : 16:9
Frame rate mode : Constant
Frame rate : 59.940 (59940/1000) FPS
Original frame rate : 59.000 FPS
Color space : YUV
Chroma subsampling : 4:2:0
Bit depth : 8 bits
Bits/(Pixel*Frame) : 0.038
Stream size : 5.02 GiB (53%)
Default : Yes
Forced : No

Audio #1
ID : 1
Format : DTS
Format/INFO : Digital Theater Systems
Format profile : MA / Core
Mode : 16
Format settings, Endianness : Big
Codec ID : A_DTS
Duration : 2 h 32 min
Bit rate mode : Variable / Constant
Bit rate : 3 840 kb/s / 1 509 kb/s
Channel(s) : 6 channels
Channel positions : Front: L C R, Side: L R, LFE
Sampling rate : 48.0 kHz
Frame rate : 93.750 FPS (512 spf)
Bit depth : 24 bits
Compression mode : Lossless / Lossy
Stream size : 4.06 GiB (42%)
Language : English
Default : Yes
Forced : No

Audio #2
ID : 2
Format : AC-3
Format/INFO : Audio Coding 3
Mode extension : CM (complete main)
Format settings, Endianness : Big
Codec ID : A_AC3
Duration : 2 h 32 min
Bit rate mode : Constant
Bit rate : 448 kb/s
Channel(s) : 6 channels
Channel positions : Front: L C R, Side: L R, LFE
Sampling rate : 48.0 kHz
Frame rate : 31.250 FPS (1536 spf)
Bit depth : 16 bits
Compression mode : Lossy
Stream size : 488 MiB (5%)
Title : Polski
Language : Polish
Default : No
Forced : No


The Dark Knight Rises
Video
ID : 3
Format : HEVC
Format/INFO : High Efficiency Video Coding
Format profile : Main@L4@High
Codec ID : V_MPEGH/ISO/HEVC
Duration : 2 h 44 min
Bit rate : 7 085 kb/s
Width : 1 920 pixels
Height : 1 080 pixels
Display aspect ratio : 16:9
Frame rate mode : Constant
Frame rate : 59.940 (60000/1001) FPS
Color space : YUV
Chroma subsampling : 4:2:0
Bit depth : 8 bits
Bits/(Pixel*Frame) : 0.057
Stream size : 8.14 GiB (61%)
Default : Yes
Forced : No

Audio #1
ID : 1
Format : DTS
Format/INFO : Digital Theater Systems
Format profile : MA / Core
Mode : 16
Format settings, Endianness : Big
Codec ID : A_DTS
Duration : 2 h 44 min
Bit rate mode : Variable / Constant
Bit rate : 4 018 kb/s / 1 509 kb/s
Channel(s) : 6 channels
Channel positions : Front: L C R, Side: L R, LFE
Sampling rate : 48.0 kHz
Frame rate : 93.750 FPS (512 spf)
Bit depth : 24 bits
Compression mode : Lossless / Lossy
Stream size : 4.62 GiB (35%)
Language : English
Default : Yes
Forced : No

Audio #2
ID : 2
Format : AC-3
Format/INFO : Audio Coding 3
Mode extension : CM (complete main)
Format settings, Endianness : Big
Codec ID : A_AC3
Duration : 2 h 44 min
Bit rate mode : Constant
Bit rate : 448 kb/s
Channel(s) : 6 channels
Channel positions : Front: L C R, Side: L R, LFE
Sampling rate : 48.0 kHz
Frame rate : 31.250 FPS (1536 spf)
Bit depth : 16 bits
Compression mode : Lossy
Stream size : 527 MiB (4%)
Title : Polski
Language : Polish
Default : No
Forced : No

====================================================

PODOBNE TORRENTY
Batman-Początek i Mroczny Rycerz - Batman Begins and The Dark Knight (2005-2012) [DVDRip.XviD] [Lektor PL] [D.T.m1125] Mroczny Rycerz Powstaje - The Dark Knight Rises *2012* [1080p.CEE.Blu-ray.AVC.DTS-HD.MA.5.1] [Lektor i Napisy PL] Mroczny Rycerz Powstaje - The Dark Knight Rises *2012*(48FPS) [1080p.DTS-HD MA 5.1.AC3.BluRay.x264-LEON 345] [Lektor i napisy PL] Mroczny Rycerz Powstaje - The Dark Knight Rises *2012*[720p.DTS 5.1.AC3.BluRay.x264-LEON 345] [Lektor i napisy PL] Mroczny Rycerz powstaje - The Dark Knight Rises (2012) [UHD Blu-ray disc 2160p] [IMAX Edition] [Lektor i Napisy PL] Batman: Początek - Batman Begins *2005* (48FPS) [1080p.TrueHD 5.1.AC3.BluRay.x264-LEON 345] [Lektor i napisy PL]
Szczegóły torrenta
TRACKER
Tracker Podstawowy: udp://tracker.openbittorrent.com:80/announce

Multitrackery:

udp://tracker.openbittorrent.com:80/announce
udp://tracker.opentrackr.org:1337/announce
http://tracker.electro-torrent.pl/announce

UAKTUALNIENIE
02/12/2019 23:39:30 (Jeśeli nie widac seeda kliknij na [uaktualnij] by odswieżyć statystyki).
[Lub sprawdź programem do pobierania torrentów, ponieważ niektóre trackery nie wyświetlają statystyk]
3 pliki
 
KOMENTARZE


dominikk2602/12/2019 23.41.50
Proszę o seedowanie panowie 40kb/s serio.. Nie ograniczajcie bo sami pobieracie..
Status użytkownika:   02/12/2019 23.41.50  TOP
GokuUI05/02/2019 10.48.16
Ludzie seedaaaaaaaa
Status użytkownika:   05/02/2019 10.48.16  TOP

DODAJ KOMENTARZ

Zaloguj się aby dodawać komentarze !!!



Wstecz








WRÓĆ NA GÓRĘ