FileTracker.PL - Darmowe polskie torrenty

Witaj drogi Towarzyszu!, jeżeli widzisz ten dymek to znaczy że nie jesteś zarejestrowany/zalogowany. Kliknij by się zarejestrować . Rejestracja zajmie mniej niż 30 sekund, a dzięki niej zyskasz możliwość pobierania, komentowania oraz dodawania torrentów !
User:  Hasło:     






Kategorie


Najczęściej pobierane w Sierpniu


Detale Torrenta


Castle Rock S01E05 - Harvest [1080p.HULU.WEB-DL.H.264.AC3] [Lektor PL]

S: 54L: 5P: 262
Dodał: Lukarusi Tracker:
Kondycja:Dodane:2018-08-09 10:18:13
Kategoria:Seriale  »  Horror / ThrillerRozmiar:1.33 GB
Język:Lektor PL  Lektor PLPobrali:POBRALI PLIK
Obserwuj:OBSERWUJ TORRENTAStaty:UAKTUALNIJ TRACKER
Download: Pobierz TorrentRaport:RAPORTUJ TORRENTA


produkcja: USA
gatunek: Thriller, Fantasy, Dramat
reżyseria: Michael Uppendahl, Daniel Attias, Kevin Hooks
scenariusz: Stephen King, Sam Shaw, Dustin Thomason
zdjęcia: Jeffrey Greeley, Richard Rutkowski
muzyka: Chris Westlake, Thomas Newman
czas trwania: ok. 49 min.



Utrzymany w konwencji horroru psychologicznego serial Castle Rock jest thrillerem, który w oryginalny sposób łączy znane tematy i motywy z powieści Stephena Kinga oraz wątki pojawiające się w najbardziej kultowych i popularnych powieściach tego pisarza.



Melanie Lynskey - Molly Strand
André Holland - Henry Deaver
Jane Levy - Jackie
Sissy Spacek - Ruth Deaver
Ann Cusack - Warden
Scott Glenn - Alan Pangborn
Caleel Harris - Henry Deaver
Terry O'Quinn - Dale Lacy
Chosen Jacobs - Wendell Deaver
Noel Fisher - Dennis Zalewski
Chris Coy - Boyd



Format : Matroska
Format version : Version 4 / Version 2
File size : 1.33 GiB
Duration : 49 min 23 s
Overall bit rate : 3 864 kb/s
Encoded date : UTC 2018-08-09 08:13:53

Video
ID : 1
Format : AVC
Format/INFO : Advanced Video Codec
Format profile : High@L4
Format settings : CABAC / 4 Ref Frames
Format settings, CABAC : Yes
Format settings, ReFrames : 4 frames
Codec ID : V_MPEG4/ISO/AVC
Duration : 49 min 23 s
Bit rate : 3 478 kb/s
Width : 1 920 pixels
Height : 1 080 pixels
Display aspect ratio : 16:9
Frame rate mode : Constant
Frame rate : 23.976 (24000/1001) FPS
Color space : YUV
Chroma subsampling : 4:2:0
Bit depth : 8 bits
Scan type : Progressive
Bits/(Pixel*Frame) : 0.070
Stream size : 1.20 GiB (90%)
Default : Yes
Forced : Yes

Audio
ID : 2
Format : AC-3
Format/INFO : Audio Coding 3
Codec ID : A_AC3
Duration : 49 min 23 s
Bit rate mode : Constant
Bit rate : 384 kb/s
Channel(s) : 2 channels
Channel positions : Front: L R
Sampling rate : 48.0 kHz
Frame rate : 31.250 FPS (1536 SPF)
Bit depth : 16 bits
Compression mode : Lossy
Stream size : 136 MiB (10%)
Language : Polish
Service kind : Complete Main
Default : Yes
Forced : Yes

====================================================

PODOBNE TORRENTY
Castle Rock [S01E05] [480p] [HULU] [WEB-DL] [DD2.0] [XviD-Ralf] [Lektor PL] Castle Rock S01E01-04 [1080p.HULU.WEB-DL.H.264.AC3] [Lektor PL] Castle Rock S01E06 - Filter [1080p.HULU.WEB-DL.H.264.AC3] [Lektor PL] Castle Rock [S01E01-E04] [480p] [HULU] [WEB-DL] [DD2.0] [XviD-Ralf] [Lektor PL] Castle Rock [S01E05] [WEBRip] [x264-TBS] [ENG] Castle Rock [S01E05] [720p] [WEBRip] [x264-TBS] [ENG]
Szczegóły torrenta
TRACKER
Tracker Podstawowy: http://tracker.vanitycore.co:6969/announce

Multitrackery:

http://tracker.vanitycore.co:6969/announce
http://tracker.filetracker.pl:8089/announce
http://agusiq-torrents.pl:6969/announce
http://tracker.torrentyorg.pl/announce
udp://tracker.publicbt.com/announce
udp://9.rarbg.com:2800/announce
udp://t1.pow7.com/announce
udp://tracker.torrentbay.to:6969/announce
udp://tracker.prq.to/announce
udp://tracker.istole.it:80/announce
udp://exodus.desync.com:6969/announce
udp://tracker.leechers-paradise.org:6969/announce
udp://9.rarbg.me:2740/announce
http://retracker.omsk.ru:2710/announce
udp://shadowshq.eddie4.nl:6969/announce
http://mgtracker.org:2710/announce
http://tracker.tfile.me/announce
udp://tracker.glotorrents.com:6969/announce
udp://eddie4.nl:6969/announce
udp://torrent.gresille.org:80/announce
udp://poloniumsurfer.tk:6969/announce
udp://tracker.pomf.se:80/announce
udp://sugoi.pomf.se:80/announce
udp://tracker.openbittorrent.com:80/announce
udp://10.rarbg.com/announce

UAKTUALNIENIE
11/08/2018 17:07:03 (Jeśeli nie widac seeda kliknij na [uaktualnij] by odswieżyć statystyki).
[Lub sprawdź programem do pobierania torrentów, ponieważ niektóre trackery nie wyświetlają statystyk]
1 file
 
KOMENTARZE


Brak komentarzy...

DODAJ KOMENTARZ

Zaloguj się aby dodawać komentarze !!!



Wstecz








WRÓĆ NA GÓRĘ