FileTracker.PL - Darmowe polskie torrenty

Witaj drogi Towarzyszu!, jeżeli widzisz ten dymek to znaczy że nie jesteś zarejestrowany/zalogowany. Kliknij by się zarejestrować . Rejestracja zajmie mniej niż 30 sekund, a dzięki niej zyskasz możliwość pobierania, komentowania oraz dodawania torrentów !
User:  Hasło:     






Kategorie


Najczęściej pobierane w Grudniu


Remonty i Wykończenia wnętrz-opolskie-dolnośląskie

Remonty i Wykończenia wnętrz-opolskie-dolnośląskie

Detale Torrenta


Odwróceni zakochani 3D(OU) - Upside Down 3D *2012* (60FPS) [1080p.Half.Over-Under.DTS-HD MA.5.1.AC3.BluRay.x264-SONDA] [Lektor i Napisy PL] [ENG]

S: 0L: 0P: 17
Dodał: ~$sonda~ Tracker:
Kondycja:Dodane:2015-02-18 14:37:25
Kategoria:Filmy 3D / SBS  »  MelodramatyRozmiar:15.50 GB
Język:Lektor PL  Lektor PL------------------
Obserwuj:OBSERWUJ TORRENTAStaty:UAKTUALNIJ TRACKER
Download: Pobierz TorrentRaport:RAPORTUJ TORRENTA
Odwróceni zakochani 3D - Upside Down *2012* 60FPS.H-OU.1080p Sonda
====================================================






Film w wersji 3D Over-Under.
Do odtworzenia filmu WYMAGANY odpowiedni sprzęt (TV 3D)
==========================================


gatunek: Melodramat,Sci-Fi
produkcja: Francja,Kanada
premiera: 7 września 2012 (Polska) 15 marca 2012 (świat)
reżyseria: Juan Diego Solanas
scenariusz: Juan Diego Solanas,Santiago Amigorena,Harris Demel

http://www.imdb.com/title/tt1374992/
http://www.filmweb.pl/film?id=526798

OBSADA:

Jim Sturgess ... Adam
Kirsten Dunst ... Eden
Timothy Spall ... Bob Boruchovitz
Heidi Hawkins ... Reporterka

Storyline:

Adam is a seemingly ordinary guy in a very extraordinary universe. He lives humbly trying to make ends meet, but his romantic spirit holds on to the memory of a girl he loved once upon a time from another world, an inverted affluent world with its own gravity, directly above but beyond reach... a girl named Eden. Their childhood flirtation becomes an impossible love. But when he catches a glimpse of grownup Eden on television, nothing will get in the way of getting her back... Not even the law or science!

OPIS

Porywające love story osadzone w oszałamiających wizualnie realiach alternatywnego wszechświata. Zjawiskowa Kirsten Dunst ("Spiderman", "Melancholia") i znakomity Jim Sturgess ("Niepokonani") zakochani miłością niemożliwą. Dwie planety, dwoje ukochanych i granica, której nie wolno przekraczać. Ale miłość nie respektuje zakazów.
Adam jest zwykłym chłopakiem w niezwykłym wszechświecie. Wiedzie skromne życie wypełnione pracą i marzeniami o Ewie - dziewczynie, którą poznał przed laty i o której nie potrafi zapomnieć. Ewa pochodzi z równoległego świata, który znajduje się tuż nad światem Adama. Ta planeta rządząca się swoimi prawami, własną grawitacją, jest niedostępna dla Adama i jemu podobnych. Pewnego dnia chłopak dowiaduje się, że istnieje bardzo ryzykowny, nielegalny sposób przedostania się do świata Ewy. Będzie musiał złamać wszelkie normy i zasady, przeciwstawić się prawom fizyki i zaryzykować życie wkradając się do zakazanego świata, by odnaleźć miłość swojego życia…

Screenshot:








General
Format version : Version 2
File size : 15.5 GiB
Duration : 1h 48mn
Overall bit rate mode : Variable
Overall bit rate : 20.5 Mbps
Movie name : UPSIDE_DOWN_3D.H-OU.1080p.60FPS.Bluray3D Rip by Sonda [AT-Team]
Encoded date : UTC 2015-02-15 09:39:48
Writing application : mkvmerge v5.7.0 ('The Whirlwind') built on Jul 8 2012 20:08:51
Writing library : libebml v1.2.3 + libmatroska v1.3.0

Video
ID : 1
Format : AVC
Format/INFO : Advanced Video Codec
Format profile : High@L4.1
Format settings, CABAC : Yes
Format settings, ReFrames : 4 frames
Codec ID : V_MPEG4/ISO/AVC
Duration : 1h 48mn
Width : 1 920 pixels
Height : 1 080 pixels
Display aspect ratio : 2.40:1
Frame rate mode : Constant
Frame rate : 60.000 fps
Original frame rate : 59.940 fps
Color space : YUV
Chroma subsampling : 4:2:0
Bit depth : 8 bits
Scan type : Progressive
Title : 3D 60FPS Rip by Sonda
Writing library : x264 core 142 r2431 ac76440
Default : Yes
Forced : No

Audio #1
ID : 2
Format : AC-3
Format/INFO : Audio Coding 3
Mode extension : CM (complete main)
Format settings, Endianness : Big
Codec ID : A_AC3
Duration : 1h 48mn
Bit rate mode : Constant
Bit rate : 448 Kbps
Channel(s) : 6 channels
Channel positions : Front: L C R, Side: L R, LFE
Sampling rate : 48.0 KHz
Bit depth : 16 bits
Compression mode : Lossy
Stream size : 346 MiB (2%)
Title : AC3 5.1 Lektor PL
Language : Polish
Default : Yes
Forced : Yes

Audio #2
ID : 3
Format : AC-3
Format/INFO : Audio Coding 3
Mode extension : CM (complete main)
Format settings, Endianness : Big
Codec ID : A_AC3
Duration : 1h 48mn
Bit rate mode : Constant
Bit rate : 640 Kbps
Channel(s) : 6 channels
Channel positions : Front: L C R, Side: L R, LFE
Sampling rate : 48.0 KHz
Bit depth : 16 bits
Compression mode : Lossy
Stream size : 495 MiB (3%)
Title : AC3 5.1 ENG
Language : English
Default : No
Forced : No

Audio #3
ID : 4
Format : DTS
Format/INFO : Digital Theater Systems
Format profile : MA / Core
Mode : 16
Format settings, Endianness : Big
Codec ID : A_DTS
Duration : 1h 48mn
Bit rate mode : Variable
Bit rate : 2221 / 1 509 Kbps
Channel(s) : 6 channels
Channel positions : Front: L C R, Side: L R, LFE
Sampling rate : 48.0 KHz
Bit depth : 16 bits
Compression mode : Lossless / Lossy
Title : DTS-HD MA 5.1 Original
Language : English
Default : No
Forced : No

Text #1
ID : 5
Format : PGS
Muxing mode : zlib
Codec ID : S_HDMV/PGS
Codec ID/INFO : The same subtitle format used on BDs/HD-DVDs
Title : Napisy 3D
Language : Polish
Default : No
Forced : No

Text #2
ID : 6
Format : PGS
Muxing mode : zlib
Codec ID : S_HDMV/PGS
Codec ID/INFO : The same subtitle format used on BDs/HD-DVDs
Title : Napisy 3D
Language : English
Default : No
Forced : No


Source:
A/V-BD3D BLUEBIRD
Lektor PL - DVD


====================================================

PODOBNE TORRENTY
Odwróceni zakochani 3D - Upside Down *2012* 3D [miniHD] [1080p.BluRay.x264.HOU.AC3-Leon 345] [Lektor PL] Odwróceni Zakochani - Upside Down *2012* [DVDRip.x264-Złośnicaa] [Lektor PL] Strażnicy Marzeń 3D(OU) - Rise Of The Guardians *2012* (60FPS) [1080p.Half.Over-Under.DTS-HD MA 7.1.AC3.BluRay.x264-SONDA] [Dubbing i Napisy PL] [ENG] Odwróceni zakochani - Upside Down *2012* [DVDRip.XviD] [Lektor PL] [DYZIO] Odwróceni Zakochani - Upside Down (2012) [720p] [BDRip] [XviD] [AC3-H1] [Lektor PL] Odwróceni zakochani - Upside Down *2012* [BDRip] [XviD-BiDA] [Lektor PL] [DYZIO]
Szczegóły torrenta
TRACKER
Tracker Podstawowy: http://tracker.aletorrenty.pl:2710/announce

Multitrackery:

http://tracker.aletorrenty.pl:2710/announce
http://94.228.192.98/announce
http://inferno.demonoid.ph:3389/announce
http://www.tlv.cc:7777/announce
http://bttracker.crunchbanglinux.org:6969/announce
http://announce.torrentsmd.com:6969/announce
http://exodus.desync.com:6969/announce
http://i.bandito.org/announce
udp://tracker.aletorrenty.pl:2710/announce
udp://11.rarbg.me/announce
udp://10.rarbg.me/announce
udp://tracker.openbittorrent.com
udp://tracker.openbittorrent.com:80
udp://tracker.publicbt.com:80/announce
udp://9.rarbg.me:2710/announce

UAKTUALNIENIE
10/10/2018 18:43:54 (Jeśeli nie widac seeda kliknij na [uaktualnij] by odswieżyć statystyki).
[Lub sprawdź programem do pobierania torrentów, ponieważ niektóre trackery nie wyświetlają statystyk]
13 pliki
 
KOMENTARZE


Brak komentarzy...

DODAJ KOMENTARZ

Zaloguj się aby dodawać komentarze !!!



Wstecz








WRÓĆ NA GÓRĘ