FileTracker.PL - Darmowe polskie torrenty

Witaj drogi Towarzyszu!, jeżeli widzisz ten dymek to znaczy że nie jesteś zarejestrowany/zalogowany. Kliknij by się zarejestrować . Rejestracja zajmie mniej niż 30 sekund, a dzięki niej zyskasz możliwość pobierania, komentowania oraz dodawania torrentów !
User:  Hasło:     






Kategorie


Najczęściej pobierane w Lipcu


Detale Torrenta


Thor: Młot bogów - Hammer of the Gods *2009* [AC3.DVDRip.XviD-NN] [Lektor PL]

S: 4L: 1P: 130
Dodał: gawroniasty Tracker:
Kondycja:Dodane:2018-05-16 15:46:01
Kategoria:Filmy DivX / XviD  »  FantasyRozmiar:1.37 GB
Język:Lektor PL  Lektor PLPobrali:POBRALI PLIK
Obserwuj:OBSERWUJ TORRENTAStaty:UAKTUALNIJ TRACKER
Download: Pobierz TorrentRaport:RAPORTUJ TORRENTA


Produkcja: USA
Gatunek: Fantasy, Przygodowy
Premiera: 11 kwietnia 2009 (świat)
Reżyseria: Todor Chapkanov
Scenariusz: Steve Bevilacqua, Rafael Jordan



Wikingowie przemierzają północne morza w poszukiwaniu lądu, na którym mogliby założyć nowe siedliska. Wreszcie dowodzeni przez Thora,żeglarze decydują się przybić do wybrzeża tajemniczej wyspy. Przybysze szybko orientują się, że jest ona zamieszkana przez śmiertelnie groźne wilkołaki. Te z kolei są sługami boga-wilka Fenrisa. Wikingowie są zmuszeni stanąć do walki z krwiożerczymi bestiami. Wkrótce Thor doświadcza wizji, w której objawia mu się potężny młot. Jedna z jego towarzyszek, Freyja, przekonuje go, iż odnalezienie owego młota pozwoli jego pobratymcom pokonać wilkołaki. Thor niezwłocznie wyrusza na poszukiwania. Tymczasem jeden z jego ludzi, który uległ mocy Fenrisa i przeszedł na stronę wilczego boga, ma zamiar pokrzyżować szyki swojego wodza. Widowisko fantasy, zrealizowane przez bułgarskiego reżysera Todora Czapkanowa, zostało zainspirowane mitologią skandynawską.



★ Zachery Ty Bryan .... Thor
★ Mac Brandt .... Baldur
★ Daz Crawford .... Ulfrich
★ Alexis Kendra .... Sif
★ Melissa Osborne .... Freyja
★ Raicho Vasilev .... Heimdall
★ George Zlatarev .... Vali
★ Velislav Pavlov .... Aegir



File size : 1.37 GiB
Duration : 1 h 22 min
Overall bit rate : 2 376 kb/s

Video
Codec ID/Hint : XviD
Duration : 1 h 22 min
Bit rate : 1 978 kb/s
Width : 720 pixels
Height : 400 pixels
Display aspect ratio : 16:9
Frame rate : 25.000 FPS
Stream size : 1.14 GiB (83%)

2 lektorów PL

1 - Paweł Bukrewicz (sci-fi)
2 - Piotr Borowiec (c+)

Audio #2
Bit rate : 192 kb/s
Channel(s) : 2 channels
Channel positions : Front: L R
Sampling rate : 48.0 kHz
Stream size : 114 MiB (8%)

====================================================

PODOBNE TORRENTY
Thor: Młot bogów - Hammer of the Gods *2009* [TVRip.XviD] [Lektor PL] Thor: Młot bogów - Hammer of the Gods *2009* [480p] [BRRip] [XviD] [AC3-SAV] [Lektor PL] [AgusiQ] Młot bogów - Hammer of the Gods *2013* [BRRip] [XviD-KiT] [Lektor PL] Młot bogów - Hammer of the Gods *2013* [BRRip] [XviD-KiT] [Lektor PL] Młot bogów - Hammer of the Gods *2013* [480p] [BRRip] [AC3] [XViD-J25] [Lektor PL] [AgusiQ] Młot bogów - Hammer of the Gods *2013* [1080p] [BluRay] [AC3] [x264-KiT] [Lektor PL]
Szczegóły torrenta
TRACKER
Tracker Podstawowy: http://tracker.vanitycore.co:6969/announce

Multitrackery:

http://tracker.vanitycore.co:6969/announce
http://tracker.opentrackr.org:1337/announce
http://ipv4.tracker.harry.lu:80/announce
http://p4p.arenabg.com:1337/announce
udp://9.rarbg.me:2710/announce
udp://tracker.coppersurfer.tk:6969/announce
udp://inferno.demonoid.pw:3399/announce
udp://tracker.opentrackr.org:1337/announce
udp://9.rarbg.com:2710/announce
udp://shadowshq.yi.org:6969/announce
udp://p4p.arenabg.com:1337/announce
udp://ipv4.tracker.harry.lu:80/announce
udp://tracker.leechers-paradise.org:6969/announce
udp://tracker.eddie4.nl:6969/announce
udp://shadowshq.eddie4.nl:6969/announce
udp://tracker.coppersurfer.tk:80/announce
udp://9.rarbg.me:2780/announce
udp://9.rarbg.to:2710/announce
udp://p4p.arenabg.ch:1337/announce
udp://inferno.demonoid.pw:3391/announce

UAKTUALNIENIE
14/06/2018 09:08:02 (Jeśeli nie widac seeda kliknij na [uaktualnij] by odswieżyć statystyki).
[Lub sprawdź programem do pobierania torrentów, ponieważ niektóre trackery nie wyświetlają statystyk]
5 pliki
 
KOMENTARZE


Brak komentarzy...

DODAJ KOMENTARZ

Zaloguj się aby dodawać komentarze !!!



Wstecz








WRÓĆ NA GÓRĘ