FileTracker.PL - Darmowe polskie torrenty

Witaj drogi Towarzyszu!, jeżeli widzisz ten dymek to znaczy że nie jesteś zarejestrowany/zalogowany. Kliknij by się zarejestrować . Rejestracja zajmie mniej niż 30 sekund, a dzięki niej zyskasz możliwość pobierania, komentowania oraz dodawania torrentów !
User:  Hasło:     






Kategorie


Najczęściej pobierane w Lipcu


Detale Torrenta


The Crossing S01E07 - Some Dreamers of the Golden Dream [1080p.WEB-DL.H.264.AC3] [Lektor PL] [ENG+Napisy PL]

S: 7L: 4P: 342
Dodał: Lukarusi Tracker:
Kondycja:Dodane:2018-05-16 06:46:09
Kategoria:Seriale  »  Sci-Fi / FantasyRozmiar:1.74 GB
Język:Lektor PL  Lektor PLPobrali:POBRALI PLIK
Obserwuj:OBSERWUJ TORRENTAStaty:UAKTUALNIJ TRACKER
Download: Pobierz TorrentRaport:RAPORTUJ TORRENTA


produkcja: USA
gatunek: Sci-Fi, Dramat, Przygodowy
reżyseria: Rob Bowman, Jeffrey G. Hunt, Alex Zakrzewski
scenariusz: Jay Beattie, Dan Dworkin
muzyka: Robert Duncan
zdjęcia: Brian Pearson, Thomas Yatsko
czas trwania: ok. 42 min.



Uchodźcy z odległej przyszłości uciekają z rozdartego wojną kraju. Szukając azylu, cofają się w czasie o 250 lat i zaczynają pojawiać się w jednym z amerykańskich miasteczek.



Natalie Martinez - Reece
Tommy Bastow - Marshall
Rob Campbell - Paul
Marcuis Harris - Caleb
Jay Karnes - Craig Lindauer
Luc Roderique - Bryce Foster
Bailey Skodje - Leah
Sandrine Holt - Emma Peralta
Steve Zahn - Jude Ellis
Simone Kessell - Rebecca
Grant Harvey - Roy Aronson
Kelley Missal - Hannah
Rick Gomez - Nestor Rosario



Format : Matroska
Format version : Version 4 / Version 2
File size : 1.74 GiB
Duration : 42 min 54 s
Overall bit rate : 5 803 kb/s
Encoded date : UTC 2018-05-16 04:38:33

Video
ID : 1
Format : AVC
Format/INFO : Advanced Video Codec
Format profile : High@L4
Format settings : CABAC / 4 Ref Frames
Format settings, CABAC : Yes
Format settings, ReFrames : 4 frames
Codec ID : V_MPEG4/ISO/AVC
Duration : 42 min 54 s
Bit rate mode : Constant
Bit rate : 5 225 kb/s
Width : 1 920 pixels
Height : 1 080 pixels
Display aspect ratio : 16:9
Frame rate mode : Constant
Frame rate : 23.976 (24000/1001) FPS
Color space : YUV
Chroma subsampling : 4:2:0
Bit depth : 8 bits
Scan type : Progressive
Bits/(Pixel*Frame) : 0.105
Stream size : 1.51 GiB (87%)
Color range : Limited
Color primaries : BT.709
Transfer characteristics : BT.709
Matrix coefficients : BT.709

Audio 1
ID : 2
Format : AC-3
Format/INFO : Audio Coding 3
Codec ID : A_AC3
Duration : 42 min 54 s
Bit rate mode : Constant
Bit rate : 384 kb/s
Channel(s) : 2 channels
Channel positions : Front: L R
Sampling rate : 48.0 kHz
Frame rate : 31.250 FPS (1536 SPF)
Bit depth : 16 bits
Compression mode : Lossy
Stream size : 118 MiB (7%)
Language : Polish
Service kind : Complete Main
Default : Yes
Forced : Yes

Audio 2
ID : 3
Format : AC-3
Format/INFO : Audio Coding 3
Codec ID : A_AC3
Duration : 42 min 54 s
Bit rate mode : Constant
Bit rate : 384 kb/s
Channel(s) : 6 channels
Channel positions : Front: L C R, Side: L R, LFE
Sampling rate : 48.0 kHz
Frame rate : 31.250 FPS (1536 SPF)
Bit depth : 16 bits
Compression mode : Lossy
Stream size : 118 MiB (7%)
Language : English
Service kind : Complete Main
Default : No
Forced : No

Text
ID : 4
Format : UTF-8
Codec ID : S_TEXT/UTF8
Codec ID/INFO : UTF-8 Plain Text
Duration : 42 min 6 s
Bit rate : 44 b/s
Count of elements : 475
Stream size : 13.8 KiB (0%)
Language : Polish
Default : No
Forced : No

====================================================

PODOBNE TORRENTY
The Crossing. Przeprawa - The Crossing [S01E07] [720p] [HDTV] [x264-KILLERS] [ENG] The Crossing. Przeprawa - The Crossing [S01E07] [HDTV] [x264-KILLERS] [ENG] Przeprawa / The Crossing (2018) (S01E07) [720p.WEBRip.x264-666] [Lektor PL ] The Crossing S01E06 - LKA [1080p.WEB-DL.H.264.AC3] [Lektor PL] [ENG+Napisy PL] The Crossing S01E01 - Pilot [1080p.WEB-DL.H.264.AC3] [Lektor PL] [ENG+Napisy PL] The Crossing S01E03 - Pax Americana [1080p.WEB-DL.H.264.AC3] [Lektor PL] [ENG+Napisy PL]
Szczegóły torrenta
TRACKER
Tracker Podstawowy: http://tracker.vanitycore.co:6969/announce

Multitrackery:

http://tracker.vanitycore.co:6969/announce
http://tracker.filetracker.pl:8089/announce
http://agusiq-torrents.pl:6969/announce
http://tracker.torrentyorg.pl/announce
udp://tracker.publicbt.com/announce
udp://9.rarbg.com:2800/announce
udp://t1.pow7.com/announce
udp://tracker.torrentbay.to:6969/announce
udp://tracker.prq.to/announce
udp://tracker.istole.it:80/announce
udp://exodus.desync.com:6969/announce
udp://tracker.leechers-paradise.org:6969/announce
udp://9.rarbg.me:2740/announce
http://retracker.omsk.ru:2710/announce
udp://shadowshq.eddie4.nl:6969/announce
http://mgtracker.org:2710/announce
http://tracker.tfile.me/announce
udp://tracker.glotorrents.com:6969/announce
udp://eddie4.nl:6969/announce
udp://torrent.gresille.org:80/announce
udp://poloniumsurfer.tk:6969/announce
udp://tracker.pomf.se:80/announce
udp://sugoi.pomf.se:80/announce
udp://tracker.openbittorrent.com:80/announce
udp://10.rarbg.com/announce

UAKTUALNIENIE
13/06/2018 15:54:14 (Jeśeli nie widac seeda kliknij na [uaktualnij] by odswieżyć statystyki).
[Lub sprawdź programem do pobierania torrentów, ponieważ niektóre trackery nie wyświetlają statystyk]
1 file
 
KOMENTARZE


Brak komentarzy...

DODAJ KOMENTARZ

Zaloguj się aby dodawać komentarze !!!



Wstecz








WRÓĆ NA GÓRĘ