FileTracker.PL - Darmowe polskie torrenty

Witaj drogi Towarzyszu!, jeżeli widzisz ten dymek to znaczy że nie jesteś zarejestrowany/zalogowany. Kliknij by się zarejestrować . Rejestracja zajmie mniej niż 30 sekund, a dzięki niej zyskasz możliwość pobierania, komentowania oraz dodawania torrentów !
User:  Hasło:     






Kategorie


Najczęściej pobierane w Grudniu


Detale Torrenta


Elementary S06E01 - An Infinite Capacity for Taking Pains [720p.iT.WEB-DL.H.264.AC3] [Lektor PL]

S: 19L: 7P: 338
Dodał: Lukarusi Tracker:
Kondycja:Dodane:2018-05-15 18:07:54
Kategoria:Seriale  »  KryminalneRozmiar:1.26 GB
Język:Lektor PL  Lektor PLPobrali:POBRALI PLIK
Obserwuj:OBSERWUJ TORRENTAStaty:UAKTUALNIJ TRACKER
Download: Pobierz TorrentRaport:RAPORTUJ TORRENTA


produkcja: USA
gatunek: Kryminał, Dramat
scenariusz: Peter Blake, Liz Friedman
reżyseria: Michael Cuesta, John David Coles
zdjęcia: Ron Fortunato, Roy H. Wagner
muzyka: Sean Callery, Zoe Keating
czas trwania: ok. 40 min.



Londyński detektyw Sherlock Holmes wraz ze swoją terapeutką Joan Watson pomagają nowojorskiej policji w rozwiązywaniu najtrudniejszych zagadek kryminalnych.



Jonny Lee Miller - Sherlock Holmes
Lucy Liu - Joan Watson
Aidan Quinn - Tobias Gregson
Jon Michael Hill - Marcus Bell



Format : Matroska
Format version : Version 4 / Version 2
File size : 1.26 GiB
Duration : 40 min 33 s
Overall bit rate : 4 461 kb/s
Encoded date : UTC 2018-05-15 16:01:08

Video
ID : 1
Format : AVC
Format/INFO : Advanced Video Codec
Format profile : High@L3.1
Format settings : 2 Ref Frames
Format settings, CABAC : No
Format settings, ReFrames : 2 frames
Codec ID : V_MPEG4/ISO/AVC
Duration : 40 min 33 s
Bit rate : 4 075 kb/s
Width : 1 280 pixels
Height : 720 pixels
Display aspect ratio : 16:9
Frame rate mode : Constant
Frame rate : 23.976 (24000/1001) FPS
Color space : YUV
Chroma subsampling : 4:2:0
Bit depth : 8 bits
Scan type : Progressive
Bits/(Pixel*Frame) : 0.184
Stream size : 1.15 GiB (91%)
Color range : Limited
Color primaries : BT.709
Transfer characteristics : BT.709
Matrix coefficients : BT.709

Audio
ID : 2
Format : AC-3
Format/INFO : Audio Coding 3
Codec ID : A_AC3
Duration : 40 min 33 s
Bit rate mode : Constant
Bit rate : 384 kb/s
Channel(s) : 2 channels
Channel positions : Front: L R
Sampling rate : 48.0 kHz
Frame rate : 31.250 FPS (1536 SPF)
Bit depth : 16 bits
Compression mode : Lossy
Stream size : 111 MiB (9%)
Language : Polish
Service kind : Complete Main

====================================================

PODOBNE TORRENTY
Elementary [S06E01] [720p] [HDTV] [x264-DIMENSION] [ENG] Elementary [S06E01] [HDTV] [x264-LOL] [ENG] 18 Only Girls - 2015.03 - Bettie - Filled To Capacity - 720p [.mp4] Designated Survivor S02E19 - Capacity [1080p.WEB-DL.H.264.DD5.1] [Lektor PL] Prawo ciążenia / Labor Pains (2009) [720p] [BRRip] [XviD] [AC3-D14] [Lektor PL] Prawo ciążenia / Labor Pains (2009) [720p] [BRRip] [XviD] [AC3-LTN] [Lektor PL]
Szczegóły torrenta
TRACKER
Tracker Podstawowy: http://tracker.vanitycore.co:6969/announce

Multitrackery:

http://tracker.vanitycore.co:6969/announce
http://tracker.filetracker.pl:8089/announce
http://agusiq-torrents.pl:6969/announce
http://tracker.torrentyorg.pl/announce
udp://tracker.publicbt.com/announce
udp://9.rarbg.com:2800/announce
udp://t1.pow7.com/announce
udp://tracker.torrentbay.to:6969/announce
udp://tracker.prq.to/announce
udp://tracker.istole.it:80/announce
udp://exodus.desync.com:6969/announce
udp://tracker.leechers-paradise.org:6969/announce
udp://9.rarbg.me:2740/announce
http://retracker.omsk.ru:2710/announce
udp://shadowshq.eddie4.nl:6969/announce
http://mgtracker.org:2710/announce
http://tracker.tfile.me/announce
udp://tracker.glotorrents.com:6969/announce
udp://eddie4.nl:6969/announce
udp://torrent.gresille.org:80/announce
udp://poloniumsurfer.tk:6969/announce
udp://tracker.pomf.se:80/announce
udp://sugoi.pomf.se:80/announce
udp://tracker.openbittorrent.com:80/announce
udp://10.rarbg.com/announce

UAKTUALNIENIE
19/05/2018 20:39:20 (Jeśeli nie widac seeda kliknij na [uaktualnij] by odswieżyć statystyki).
[Lub sprawdź programem do pobierania torrentów, ponieważ niektóre trackery nie wyświetlają statystyk]
1 file
 
KOMENTARZE


Brak komentarzy...

DODAJ KOMENTARZ

Zaloguj się aby dodawać komentarze !!!



Wstecz








WRÓĆ NA GÓRĘ