FileTracker.PL - Darmowe polskie torrenty

Witaj drogi Towarzyszu!, jeżeli widzisz ten dymek to znaczy że nie jesteś zarejestrowany/zalogowany. Kliknij by się zarejestrować . Rejestracja zajmie mniej niż 30 sekund, a dzięki niej zyskasz możliwość pobierania, komentowania oraz dodawania torrentów !
User:  Hasło:     






Kategorie


Najczęściej pobierane w Grudniu


Detale Torrenta


Fear the Walking Dead S04E05 - Laura [1080p.AMZN.WEB-DL.H.264.DD5.1] [Napisy PL]

S: 1L: 2P: 79
Dodał: Lukarusi Tracker:
Kondycja:Dodane:2018-05-15 16:54:58
Kategoria:Seriale  »  Horror / ThrillerRozmiar:3.08 GB
Język:Napisy PL  Napisy PLPobrali:POBRALI PLIK
Obserwuj:OBSERWUJ TORRENTAStaty:UAKTUALNIJ TRACKER
Download: Pobierz TorrentRaport:RAPORTUJ TORRENTA


produkcja: USA
gatunek: Horror, Dramat
reżyseria: Dan Liu, Magnus Martens, John Polson
scenariusz: Robert Kirkman, Dave Erickson
zdjęcia: Adam Suschitzky
muzyka: Danny Bensi, Saunder Jurriaans
czas trwania: ok. 46 min.



Spin-off serialu "The Walking Dead", opowiadający o początkach epidemii zombie w Los Angeles.



Kim Dickens - Madison Clark
Alycia Debnam-Carey - Alicia Clark
Frank Dillane - Nick Clark
Mercedes Mason - Ofelia Salazar
Colman Domingo - Victor Strand
Rubén Blades - Daniel Salazar
Cliff Curtis - Travis Manawa
Danay Garcia - Luciana Galvez
Lennie James - Morgan Jones
Jenna Elfman - Naomi



Format : Matroska
Format version : Version 4 / Version 2
File size : 3.08 GiB
Duration : 46 min 5 s
Overall bit rate mode : Variable
Overall bit rate : 9 567 kb/s
Encoded date : UTC 2018-05-15 14:38:34

Video
ID : 1
Format : AVC
Format/INFO : Advanced Video Codec
Format profile : High@L4
Format settings : CABAC / 4 Ref Frames
Format settings, CABAC : Yes
Format settings, ReFrames : 4 frames
Codec ID : V_MPEG4/ISO/AVC
Duration : 46 min 5 s
Bit rate mode : Variable
Bit rate : 8 925 kb/s
Maximum bit rate : 15.0 Mb/s
Width : 1 920 pixels
Height : 1 080 pixels
Display aspect ratio : 16:9
Frame rate mode : Constant
Frame rate : 23.976 (24000/1001) FPS
Color space : YUV
Chroma subsampling : 4:2:0
Bit depth : 8 bits
Scan type : Progressive
Bits/(Pixel*Frame) : 0.180
Stream size : 2.87 GiB (93%)
Color range : Limited
Color primaries : BT.709
Transfer characteristics : BT.709
Matrix coefficients : BT.709

Audio
ID : 2
Format : E-AC-3
Format/INFO : Enhanced Audio Coding 3
Codec ID : A_EAC3
Duration : 46 min 5 s
Bit rate mode : Constant
Bit rate : 640 kb/s
Channel(s) : 6 channels
Channel positions : Front: L C R, Side: L R, LFE
Sampling rate : 48.0 kHz
Frame rate : 187.500 FPS (256 SPF)
Compression mode : Lossy
Stream size : 211 MiB (7%)
Language : English
Service kind : Complete Main
Default : Yes
Forced : Yes

Text
ID : 3
Format : UTF-8
Codec ID : S_TEXT/UTF8
Codec ID/INFO : UTF-8 Plain Text
Duration : 42 min 1 s
Bit rate : 28 b/s
Count of elements : 245
Stream size : 8.77 KiB (0%)
Language : Polish
Default : Yes
Forced : Yes

====================================================

PODOBNE TORRENTY
Fear the Walking Dead S04E05 - Laura [1080p.iT.WEB-DL.H.264.AC3] [Lektor PL] [ENG+Napisy PL] Fear the Walking Dead S04E08 - No One's Gone [1080p.AMZN.WEB-DL.H.264.DD5.1] [Napisy PL] Fear the Walking Dead S04E01 - What's Your Story? [1080p.AMZN.WEB-DL.H.264.DD5.1] [Napisy PL] Fear the Walking Dead S04E02 - Another Day in the Diamond [1080p.AMZN.WEB-DL.H.264.DD5.1] [Napisy PL] Fear the Walking Dead S04E03 - Good Out Here [1080p.AMZN.WEB-DL.H.264.DD5.1] [Napisy PL] Fear the Walking Dead S04E04 - Buried [1080p.AMZN.WEB-DL.H.264.DD5.1] [Napisy PL]
Szczegóły torrenta
TRACKER
Tracker Podstawowy: http://tracker.vanitycore.co:6969/announce

Multitrackery:

http://tracker.vanitycore.co:6969/announce
http://tracker.filetracker.pl:8089/announce
http://agusiq-torrents.pl:6969/announce
http://tracker.torrentyorg.pl/announce
udp://tracker.publicbt.com/announce
udp://9.rarbg.com:2800/announce
udp://t1.pow7.com/announce
udp://tracker.torrentbay.to:6969/announce
udp://tracker.prq.to/announce
udp://tracker.istole.it:80/announce
udp://exodus.desync.com:6969/announce
udp://tracker.leechers-paradise.org:6969/announce
udp://9.rarbg.me:2740/announce
http://retracker.omsk.ru:2710/announce
udp://shadowshq.eddie4.nl:6969/announce
http://mgtracker.org:2710/announce
http://tracker.tfile.me/announce
udp://tracker.glotorrents.com:6969/announce
udp://eddie4.nl:6969/announce
udp://torrent.gresille.org:80/announce
udp://poloniumsurfer.tk:6969/announce
udp://tracker.pomf.se:80/announce
udp://sugoi.pomf.se:80/announce
udp://tracker.openbittorrent.com:80/announce
udp://10.rarbg.com/announce

UAKTUALNIENIE
04/09/2018 16:35:44 (Jeśeli nie widac seeda kliknij na [uaktualnij] by odswieżyć statystyki).
[Lub sprawdź programem do pobierania torrentów, ponieważ niektóre trackery nie wyświetlają statystyk]
2 pliki
 
KOMENTARZE


Brak komentarzy...

DODAJ KOMENTARZ

Zaloguj się aby dodawać komentarze !!!



Wstecz








WRÓĆ NA GÓRĘ