FileTracker.PL - Darmowe polskie torrenty

Witaj drogi Towarzyszu!, jeżeli widzisz ten dymek to znaczy że nie jesteś zarejestrowany/zalogowany. Kliknij by się zarejestrować . Rejestracja zajmie mniej niż 30 sekund, a dzięki niej zyskasz możliwość pobierania, komentowania oraz dodawania torrentów !
User:  Hasło:     






Kategorie


Najczęściej pobierane w Wrześniu


Detale Torrenta


Pojedynek w El Diablo - Duel at Diablo *1966* [AC3.DVDRip.XviD-NN] [Lektor PL]

S: 17L: 18P: 163
Dodał: gawroniasty Tracker:
Kondycja:Dodane:2018-05-15 15:23:31
Kategoria:Filmy DivX / XviD  »  WesternRozmiar:1.68 GB
Język:Lektor PL  Lektor PLPobrali:POBRALI PLIK
Obserwuj:OBSERWUJ TORRENTAStaty:UAKTUALNIJ TRACKER
Download: Pobierz TorrentRaport:RAPORTUJ TORRENTA


Produkcja: USA
Gatunek: Western
Premiera: 12 maja 1966 (świat)
Reżyseria: Ralph Nelson
Scenariusz: Marvin H. Albert, Michael M. Grilikhes



Porucznik McAllister dostaje rozkaz przetransportowania powozów z bronią do innego fortu. Towarzyszy mu kilku niedoświadczonych żołnierzy. Wkrótce dołącza do nich też były skout, Jess Remsberg, który pragnie uwolnić Ellen Grange z rąk Apaczów. Jenakże Remsberg ma jeszcze inny cel, szuka zabójcy swojej Indiańskiej żony ...



★ James Garner .... Jess Remsberg
★ Sidney Poitier .... Toller
★ Bibi Andersson .... Ellen Grange
★ Dennis Weaver .... Willard Grange
★ Bill Travers .... Porucznik Scotty McAllister
★ William Redfield .... Sierżant Ferguson
★ John Hoyt .... Chata
★ John Crawford .... Clay Dean



File size : 1.68 GiB
Duration : 1 h 40 min
Overall bit rate : 2 397 kb/s

Video
Codec ID : xvid
Duration : 1 h 40 min
Bit rate : 1 998 kb/s
Width : 720 pixels
Height : 400 pixels
Display aspect ratio : 16:9
Frame rate : 25.000 FPS
Stream size : 1.40 GiB (83%)

2 lektorów PL
1 - Mirosław Utta (amc)
2 - Tomasz Knapik

Audio x 2
Bit rate : 192 kb/s
Channel(s) : 2 channels
Channel positions : Front: L R
Sampling rate : 48.0 kHz
Stream size : 137 MiB (8%)

====================================================

PODOBNE TORRENTY
Pojedynek w Diablo - Duel at Diablo (1966) [720p] [HDTV] [XViD] [AC3-H1] [Lektor PL] Diablo + Diablo 2 (DLC) (1996-2001) [MULTI-PL] [RePack R G Catalyst] [EXE](Bill22) Diablo + Diablo 2 *1996-2001* [MULTI-PL] [RePack R.G. Catalyst] [EXE] Diablo - A Man Apart *2003* [DVDRip] [XviD-NN] [Lektor PL] Kręgosłup diabła / El Espinazo del diablo (2001) [DVDRip.XviD] [AC3-GR4PE] [Lektor PL] Kręgosłup diabła - El espinazo del diablo (2001) [DVDRip.XviD] [AC3-GR4PE] [Lektor PL]
Szczegóły torrenta
TRACKER
Tracker Podstawowy: http://tracker.vanitycore.co:6969/announce

Multitrackery:

http://tracker.vanitycore.co:6969/announce
http://tracker.opentrackr.org:1337/announce
http://ipv4.tracker.harry.lu:80/announce
http://p4p.arenabg.com:1337/announce
udp://9.rarbg.me:2710/announce
udp://tracker.coppersurfer.tk:6969/announce
udp://inferno.demonoid.pw:3399/announce
udp://tracker.opentrackr.org:1337/announce
udp://9.rarbg.com:2710/announce
udp://shadowshq.yi.org:6969/announce
udp://p4p.arenabg.com:1337/announce
udp://ipv4.tracker.harry.lu:80/announce
udp://tracker.leechers-paradise.org:6969/announce
udp://tracker.eddie4.nl:6969/announce
udp://shadowshq.eddie4.nl:6969/announce
udp://tracker.coppersurfer.tk:80/announce
udp://9.rarbg.me:2780/announce
udp://9.rarbg.to:2710/announce
udp://p4p.arenabg.ch:1337/announce
udp://inferno.demonoid.pw:3391/announce

UAKTUALNIENIE
16/05/2018 16:58:48 (Jeśeli nie widac seeda kliknij na [uaktualnij] by odswieżyć statystyki).
[Lub sprawdź programem do pobierania torrentów, ponieważ niektóre trackery nie wyświetlają statystyk]
5 pliki
 
KOMENTARZE


Brak komentarzy...

DODAJ KOMENTARZ

Zaloguj się aby dodawać komentarze !!!



Wstecz








WRÓĆ NA GÓRĘ