FileTracker.PL - Darmowe polskie torrenty

Witaj drogi Towarzyszu!, jeżeli widzisz ten dymek to znaczy że nie jesteś zarejestrowany/zalogowany. Kliknij by się zarejestrować . Rejestracja zajmie mniej niż 30 sekund, a dzięki niej zyskasz możliwość pobierania, komentowania oraz dodawania torrentów !
User:  Hasło:     






Kategorie


Najczęściej pobierane w Lipcu


Detale Torrenta


Afera Thomasa Crowna - The Thomas Crown Affair *1968* [AC3.DVDRip.XviD-NN] [Lektor PL]

S: 18L: 7P: 107
Dodał: gawroniasty Tracker:
Kondycja:Dodane:2018-05-15 14:41:04
Kategoria:Filmy DivX / XviD  »  KryminalneRozmiar:1.45 GB
Język:Lektor PL  Lektor PLPobrali:POBRALI PLIK
Obserwuj:OBSERWUJ TORRENTAStaty:UAKTUALNIJ TRACKER
Download: Pobierz TorrentRaport:RAPORTUJ TORRENTA


Produkcja: USA
Gatunek: Kryminał, Sensacyjny
Premiera: 19 czerwca 1968 (świat)
Reżyseria: Norman Jewison
Scenariusz: Alan Trustman



Thomas Crown (S. McQueen) jest jednym z najbogatszych obywateli Bostonu. Jego wielką pasją są przestępstwa. Przygotowuje duży skok na bank, nie dlatego, że potrzebuje pieniędzy, lecz tylko po to, by zburzyć istniejący układ społeczny. Dla Thomasa jest to tylko gra, a pieniądze to namacalny dowód jego zwycięstwa. Agencja ubezpieczeniowa wysyła swoją najlepszą agentkę, Vicky Anderson (F. Dunaway), by zajęła się tą sprawą. Vicky postanawia spotkać się z Crownem i przyłączyć się do gry, którą prowadzi... Francuski kompozytor, Michel Legrand, został nagrodzony w 1968 roku Oscarem za muzykę, którą skomponował do tej wersji "Afery Thomasa Crowna".



★ Steve McQueen .... Thomas Crown
★ Faye Dunaway .... Vicki Anderson
★ Astrid Heeren .... Gwen
★ Norman Fell .... Windziarz
★ Yaphet Kotto .... Carl
★ Sidney Armus .... Arnie
★ Paul Burke .... Porucznik Eddy Malone
★ Bruce Glover .... Menadżer banku



File size : 1.45 GiB
Duration : 1 h 42 min
Overall bit rate : 2 028 kb/s

Video
Codec ID/Hint : XviD
Duration : 1 h 42 min
Bit rate : 1 827 kb/s
Width : 704 pixels
Height : 384 pixels
Display aspect ratio : 1.85:1
Frame rate : 23.976 (23976/1000) FPS
Stream size : 1.31 GiB (90%)

Lektor - Mirosław Utta

Audio
Format : AC-3
Bit rate : 192 kb/s
Channel(s) : 2 channels
Channel positions : Front: L R
Sampling rate : 48.0 kHz
Stream size : 141 MiB (9%)

====================================================

PODOBNE TORRENTY
Afera Thomasa Crowna - The Thomas Crown Affair *1968* [CUSTOM.AC3.BDRip.XviD-RETRO] [Lektor PL] Afera Thomasa Crowna - The Thomas Crown Affair (1999) [DVDRiP.XViD-pawel2006] [Lektor PL] Afera Thomasa Crowna - The Thomas Crown Affair (1999) [HD] [720P] [LEKTOR PL] [hirania] Odd Thomas Pogromca zła - Odd Thomas (2013) [DVDRip.[XviD] [Lektor PL] Diamentowa afera / Blue Streak (1999) [DVDRip.XviD] [AC3-NN] [Lektor PL] Diamentowa afera - Blue Streak (1999) [DVDRip.XviD-GR4PE] [Lektor PL]
Szczegóły torrenta
TRACKER
Tracker Podstawowy: http://tracker.vanitycore.co:6969/announce

Multitrackery:

http://tracker.vanitycore.co:6969/announce
http://tracker.opentrackr.org:1337/announce
http://ipv4.tracker.harry.lu:80/announce
http://p4p.arenabg.com:1337/announce
udp://9.rarbg.me:2710/announce
udp://tracker.coppersurfer.tk:6969/announce
udp://inferno.demonoid.pw:3399/announce
udp://tracker.opentrackr.org:1337/announce
udp://9.rarbg.com:2710/announce
udp://shadowshq.yi.org:6969/announce
udp://p4p.arenabg.com:1337/announce
udp://ipv4.tracker.harry.lu:80/announce
udp://tracker.leechers-paradise.org:6969/announce
udp://tracker.eddie4.nl:6969/announce
udp://shadowshq.eddie4.nl:6969/announce
udp://tracker.coppersurfer.tk:80/announce
udp://9.rarbg.me:2780/announce
udp://9.rarbg.to:2710/announce
udp://p4p.arenabg.ch:1337/announce
udp://inferno.demonoid.pw:3391/announce

UAKTUALNIENIE
16/05/2018 16:58:50 (Jeśeli nie widac seeda kliknij na [uaktualnij] by odswieżyć statystyki).
[Lub sprawdź programem do pobierania torrentów, ponieważ niektóre trackery nie wyświetlają statystyk]
5 pliki
 
KOMENTARZE


Brak komentarzy...

DODAJ KOMENTARZ

Zaloguj się aby dodawać komentarze !!!



Wstecz








WRÓĆ NA GÓRĘ