FileTracker.PL - Darmowe polskie torrenty

Witaj drogi Towarzyszu!, jeżeli widzisz ten dymek to znaczy że nie jesteś zarejestrowany/zalogowany. Kliknij by się zarejestrować . Rejestracja zajmie mniej niż 30 sekund, a dzięki niej zyskasz możliwość pobierania, komentowania oraz dodawania torrentów !
User:  Hasło:     






Kategorie


Najczęściej pobierane w Grudniu


Detale Torrenta


The Walking Dead S08E11 - Dead or Alive Or [1080p.WEB-DL.H.264.AC3] [Lektor PL] [ENG+Napisy PL]

S: 17L: 2P: 212
Dodał: Lukarusi Tracker:
Kondycja:Dodane:2018-03-12 20:05:07
Kategoria:Seriale  »  Horror / ThrillerRozmiar:1.91 GB
Język:Lektor PL  Lektor PLPobrali:POBRALI PLIK
Obserwuj:OBSERWUJ TORRENTAStaty:UAKTUALNIJ TRACKER
Download: Pobierz TorrentRaport:RAPORTUJ TORRENTA


produkcja: USA
gatunek: Dramat, Horror, Thriller
reżyseria: Greg Nicotero, Michael E. Satrazemis, Larry Teng
scenariusz: Frank Darabont, Robert Kirkman, Charlie Adlard, Tony Moore
zdjęcia: Duane Manwiller
muzyka: Bear McCreary
czas trwania: ok. 46 min.



Serial opowiada o czasie następującym po pandemicznej apokalipsie, po której świat opanowały zombie. Szeryf Rick Grimes podróżuje wraz z rodziną i z garstką ocalałych, w bezustannym poszukiwaniu bezpiecznego schronienia. Ciągła presja oraz codzienne zmagania się z zagrożeniem i śmiercią zbierają krwawe żniwo, popychając wielu ku otchłani najgłębszego ludzkiego okrucieństwa. W trakcie walki o przeżycie swojej rodziny, Rick odkrywa, że wszechogarniający strach ocalałych może być dużo bardziej niebezpieczny, niż przemierzające świat zombie.



Andrew Lincoln - Rick Grimes
Chandler Riggs - Carl Grimes
Danai Gurira - Michonne
Lauren Cohan - Maggie Greene
Norman Reedus - Daryl Dixon
Melissa McBride - Carol Peletier
Lennie James - Morgan Jones
Christian Serratos - Rosita Espinosa
Jeffrey Dean Morgan - Negan



Format : Matroska
Format version : Version 4 / Version 2
File size : 1.91 GiB
Duration : 45 min 41 s
Overall bit rate : 5 993 kb/s
Encoded date : UTC 2018-03-12 18:29:42

Video
ID : 1
Format : AVC
Format/INFO : Advanced Video Codec
Format profile : High@L4
Format settings, CABAC : Yes
Format settings, RefFrames : 4 frames
Codec ID : V_MPEG4/ISO/AVC
Duration : 45 min 41 s
Bit rate : 5 223 kb/s
Width : 1 916 pixels
Height : 1 076 pixels
Display aspect ratio : 16:9
Frame rate mode : Constant
Frame rate : 23.976 (24000/1001) FPS
Color space : YUV
Chroma subsampling : 4:2:0
Bit depth : 8 bits
Scan type : Progressive
Bits/(Pixel*Frame) : 0.106
Stream size : 1.67 GiB (87%)
Color range : Limited
Color primaries : BT.709
Transfer characteristics : BT.709
Matrix coefficients : BT.709

Audio 1
ID : 2
Format : AC-3
Format/INFO : Audio Coding 3
Format settings, Endianness : Big
Codec ID : A_AC3
Duration : 45 min 41 s
Bit rate mode : Constant
Bit rate : 384 kb/s
Channel(s) : 2 channels
Channel positions : Front: L R
Sampling rate : 48.0 kHz
Frame rate : 31.250 FPS (1536 SPF)
Bit depth : 16 bits
Compression mode : Lossy
Stream size : 125 MiB (6%)
Language : Polish
Service kind : Complete Main
Default : Yes
Forced : Yes

Audio 2
ID : 3
Format : AC-3
Format/INFO : Audio Coding 3
Format settings, Endianness : Big
Codec ID : A_AC3
Duration : 45 min 41 s
Bit rate mode : Constant
Bit rate : 384 kb/s
Channel(s) : 6 channels
Channel positions : Front: L C R, Side: L R, LFE
Sampling rate : 48.0 kHz
Frame rate : 31.250 FPS (1536 SPF)
Bit depth : 16 bits
Compression mode : Lossy
Stream size : 125 MiB (6%)
Language : English
Service kind : Complete Main
Default : No
Forced : No

Text
ID : 4
Format : UTF-8
Codec ID : S_TEXT/UTF8
Codec ID/INFO : UTF-8 Plain Text
Duration : 44 min 49 s
Bit rate : 44 b/s
Count of elements : 348
Stream size : 14.7 KiB (0%)
Language : Polish
Default : No
Forced : No

====================================================

PODOBNE TORRENTY
The Walking Dead (2017) [S08E11] [720p] [HDTV] [XViD] [AC3-H1] [Lektor PL] Żywe trupy - The Walking Dead [S08E11] [480p] [WEB-DL] [DD5.1] [XviD-Ralf] [Lektor PL] Żywe trupy / The Walking Dead (2017) (S08E11) [720p.HDTV.x264-666] [Lektor PL] Żywe trupy - The Walking Dead [S08E11] [HDTV] [x264-SVA] [ENG] Żywe trupy - The Walking Dead [S08E11] [720p] [HDTV] [x264-AVS] [ENG] The Walking Dead S05E10 - Them [1080p.WEB-DL.H.264.AC3] [Lektor PL i Napisy PL]
Szczegóły torrenta
TRACKER
Tracker Podstawowy: http://tracker.vanitycore.co:6969/announce

Multitrackery:

http://tracker.vanitycore.co:6969/announce
http://tracker.filetracker.pl:8089/announce
http://agusiq-torrents.pl:6969/announce
http://tracker.torrentyorg.pl/announce
udp://tracker.publicbt.com/announce
udp://9.rarbg.com:2740/announce
udp://t1.pow7.com/announce
udp://tracker.torrentbay.to:6969/announce
udp://tracker.prq.to/announce
udp://tracker.istole.it:80/announce
udp://exodus.desync.com:6969/announce
udp://tracker.leechers-paradise.org:6969/announce
udp://9.rarbg.me:2730/announce
http://retracker.omsk.ru:2710/announce
udp://shadowshq.eddie4.nl:6969/announce
http://mgtracker.org:2710/announce
http://tracker.tfile.me/announce
udp://tracker.glotorrents.com:6969/announce
udp://eddie4.nl:6969/announce
udp://torrent.gresille.org:80/announce
udp://poloniumsurfer.tk:6969/announce
udp://tracker.pomf.se:80/announce
udp://sugoi.pomf.se:80/announce
udp://tracker.openbittorrent.com:80/announce
udp://10.rarbg.com/announce

UAKTUALNIENIE
03/04/2018 23:17:08 (Jeśeli nie widac seeda kliknij na [uaktualnij] by odswieżyć statystyki).
[Lub sprawdź programem do pobierania torrentów, ponieważ niektóre trackery nie wyświetlają statystyk]
1 file
 
KOMENTARZE


Brak komentarzy...

DODAJ KOMENTARZ

Zaloguj się aby dodawać komentarze !!!



Wstecz








WRÓĆ NA GÓRĘ