FileTracker.PL - Darmowe polskie torrenty

Witaj drogi Towarzyszu!, jeżeli widzisz ten dymek to znaczy że nie jesteś zarejestrowany/zalogowany. Kliknij by się zarejestrować . Rejestracja zajmie mniej niż 30 sekund, a dzięki niej zyskasz możliwość pobierania, komentowania oraz dodawania torrentów !
User:  Hasło:     






Kategorie


Najczęściej pobierane w Wrześniu


Detale Torrenta


Gotham S04E13 - A Dark Knight: A Beautiful Darkness [720p.WEB-DL.H.264.DD5.1] [Napisy PL]

S: 15L: 11P: 125
Dodał: Lukarusi Tracker:
Kondycja:Dodane:2018-03-12 14:56:03
Kategoria:Seriale  »  KryminalneRozmiar:1.35 GB
Język:Napisy PL  Napisy PLPobrali:POBRALI PLIK
Obserwuj:OBSERWUJ TORRENTAStaty:UAKTUALNIJ TRACKER
Download: Pobierz TorrentRaport:RAPORTUJ TORRENTA


produkcja: USA
gatunek: Kryminał, Dramat
scenariusz: Bruno Heller, Bill Finger, Bob Kane
reżyseria: Danny Cannon, T.J. Scott, Eagle Egilsson
zdjęcia: Chris Norr, Crescenzo G.P. Notarile
muzyka: David E. Russo, Graeme Revell
czas trwania: ok. 43 min.



James Gordon jest synem byłego prokuratora okręgowego, a obecnie początkującym detektywem w policji miasta Gotham City, na czele której stoi kapitan Sara Essen. Zaręczony z Barbarą Kean policjant chce przywrócić miasto do czasów jakie znał z dzieciństwa. Zostaje on przydzielony do twardego i zuchwałego Harveya Bullocka. Obaj muszą rozwikłać sprawę, która wstrząsnęła miastem, jaką było brutalne morderstwo małżeństwa miejscowych milionerów, Thomasa i Marthy Wayne. Na miejscu zbrodni Gordon poznaje 12-letniego syna Wayne'ów, Bruce'a, który przeżył napad i był świadkiem całego zdarzenia. Młody detektyw nawiązuje więź z chłopcem i poruszony jego stratą przysięga, że odnajdzie sprawcę śmierci jego rodziców. Odtąd jedynym opiekunem Bruce'a zostaje lokaj rodziny Wayne'ów - Alfred, zaś Gordon balansując na granicy prawa musi stawić czoła szefowej gangu Fish Mooney. W trakcie śledztwa przyjdzie mu też spotkać szereg innych osób, które w przyszłości staną się superzłoczyńcami. Przyjaźń Gordona i osieroconego dziedzica fortuny Wayne'ów potrwa przez lata i będzie miała wpływ na decyzję chłopca o zostaniu mścicielem.



Ben McKenzie - James Gordon
Donal Logue - Harvey Bullock
Robin Lord Taylor - Oswald Cobblepot
Erin Richards - Barbara Kean
Sean Pertwee - Alfred Pennyworth
Jada Pinkett Smith - Fish Mooney
David Mazouz - Bruce Wayne
Carmen Bicondova - Selina Kyle
Cory Michael Smith - Edward Nygma
Michael Chiklis - Nathaniel Barnes
Nicholas D'Agosto - Harvey Dent
Chris Chalk - Lucius Fox



Format : Matroska
Format version : Version 4 / Version 2
File size : 1.35 GiB
Duration : 43 min 36 s
Overall bit rate : 4 423 kb/s
Encoded date : UTC 2018-03-12 13:39:17

Video
ID : 1
Format : AVC
Format/INFO : Advanced Video Codec
Format profile : High@L3.1
Format settings, CABAC : No
Format settings, RefFrames : 2 frames
Codec ID : V_MPEG4/ISO/AVC
Duration : 43 min 36 s
Bit rate : 4 075 kb/s
Width : 1 280 pixels
Height : 718 pixels
Display aspect ratio : 16:9
Frame rate mode : Constant
Frame rate : 23.976 (24000/1001) FPS
Color space : YUV
Chroma subsampling : 4:2:0
Bit depth : 8 bits
Scan type : Progressive
Bits/(Pixel*Frame) : 0.185
Stream size : 1.23 GiB (91%)
Color range : Limited
Color primaries : BT.709
Transfer characteristics : BT.709
Matrix coefficients : BT.709

Audio
ID : 2
Format : AC-3
Format/INFO : Audio Coding 3
Format settings, Endianness : Big
Codec ID : A_AC3
Duration : 43 min 36 s
Bit rate mode : Constant
Bit rate : 384 kb/s
Channel(s) : 6 channels
Channel positions : Front: L C R, Side: L R, LFE
Sampling rate : 48.0 kHz
Frame rate : 31.250 FPS (1536 SPF)
Bit depth : 16 bits
Compression mode : Lossy
Stream size : 120 MiB (9%)
Language : English
Service kind : Complete Main

Text
ID : 3
Format : UTF-8
Codec ID : S_TEXT/UTF8
Codec ID/INFO : UTF-8 Plain Text
Duration : 42 min 49 s
Bit rate : 48 b/s
Count of elements : 514
Stream size : 15.2 KiB (0%)
Language : Polish

====================================================

PODOBNE TORRENTY
Gotham S04E11 - A Dark Knight: Queen Takes Knight [720p.WEB-DL.H.264.DD5.1] [Napisy PL] Gotham S04E21 - A Dark Knight: One Bad Day [720p.WEB-DL.H.264.DD5.1] [Napisy PL] Gotham S04E01 - A Dark Knight: Pax PENGuina [720p.WEB-DL.H.264.DD5.1] [Napisy PL] Gotham S04E16 - A Dark Knight: One of My Three Soups [720p.WEB-DL.H.264.DD5.1] [Napisy PL] Gotham S04E19 - A Dark Knight: To Our Deaths and Beyond [720p.WEB-DL.H.264.DD5.1] [Napisy PL] Gotham S04E20 - A Dark Knight: That Old Corpse [720p.WEB-DL.H.264.DD5.1] [Napisy PL]
Szczegóły torrenta
TRACKER
Tracker Podstawowy: http://tracker.vanitycore.co:6969/announce

Multitrackery:

http://tracker.vanitycore.co:6969/announce
http://tracker.filetracker.pl:8089/announce
http://agusiq-torrents.pl:6969/announce
http://tracker.torrentyorg.pl/announce
udp://tracker.publicbt.com/announce
udp://9.rarbg.com:2740/announce
udp://t1.pow7.com/announce
udp://tracker.torrentbay.to:6969/announce
udp://tracker.prq.to/announce
udp://tracker.istole.it:80/announce
udp://exodus.desync.com:6969/announce
udp://tracker.leechers-paradise.org:6969/announce
udp://9.rarbg.me:2730/announce
http://retracker.omsk.ru:2710/announce
udp://shadowshq.eddie4.nl:6969/announce
http://mgtracker.org:2710/announce
http://tracker.tfile.me/announce
udp://tracker.glotorrents.com:6969/announce
udp://eddie4.nl:6969/announce
udp://torrent.gresille.org:80/announce
udp://poloniumsurfer.tk:6969/announce
udp://tracker.pomf.se:80/announce
udp://sugoi.pomf.se:80/announce
udp://tracker.openbittorrent.com:80/announce
udp://10.rarbg.com/announce

UAKTUALNIENIE
16/03/2018 21:14:21 (Jeśeli nie widac seeda kliknij na [uaktualnij] by odswieżyć statystyki).
[Lub sprawdź programem do pobierania torrentów, ponieważ niektóre trackery nie wyświetlają statystyk]
2 pliki
 
KOMENTARZE


Brak komentarzy...

DODAJ KOMENTARZ

Zaloguj się aby dodawać komentarze !!!



Wstecz








WRÓĆ NA GÓRĘ