FileTracker.PL - Darmowe polskie torrenty

Witaj drogi Towarzyszu!, jeżeli widzisz ten dymek to znaczy że nie jesteś zarejestrowany/zalogowany. Kliknij by się zarejestrować . Rejestracja zajmie mniej niż 30 sekund, a dzięki niej zyskasz możliwość pobierania, komentowania oraz dodawania torrentów !
User:  Hasło:     






Kategorie


Najczęściej pobierane w Wrześniu


Detale Torrenta


Homeland S07E04 - Like Bad at Things [720p.AMZN.WEB-DL.H.264.AC3] [Lektor PL]

S: 18L: 0P: 314
Dodał: Lukarusi Tracker:
Kondycja:Dodane:2018-03-12 13:28:02
Kategoria:Seriale  »  Horror / ThrillerRozmiar:1.31 GB
Język:Lektor PL  Lektor PLPobrali:POBRALI PLIK
Obserwuj:OBSERWUJ TORRENTAStaty:UAKTUALNIJ TRACKER
Download: Pobierz TorrentRaport:RAPORTUJ TORRENTA


produkcja: USA
gatunek: Thriller, Dramat
reżyseria: Lesli Linka Glatter, Charlotte Sieling, Michael Klick
scenariusz: Alex Gansa, Howard Gordon, Gideon Raff, Debora Cahn
zdjęcia: David Klein, Giorgio Scali
muzyka: Sean Callery
czas trwania odcinka: ok. 47 min.



Po zamachu na jej życie, prezydent Keane złamała obietnicę daną Carrie, aresztując dwustu członków agencji wywiadowczej nie mając żadnych dowodów przeciwko nim, w tym Saulowi Berensonowi. Akcja z Nowego Jorku przenosi się do Waszyngtonu, gdzie Carrie mieszka ze swoją siostrą Maggie.



Claire Danes - Carrie Mathison
Mandy Patinkin - Saul Berenson
Maury Sterling - Max Piotrowski
Elizabeth Marvel - Elizabeth Keane
Amy Hargreaves - Maggie Mathison
Jake Weber - Brett O'Keefe
Linus Roache - David Wellington
Morgan Spector - Dante Allen
Claire Keane - Franny
Sandrine Holt - Simone Martin



Format : Matroska
Format version : Version 4 / Version 2
File size : 1.31 GiB
Duration : 47 min 30 s
Overall bit rate mode : Variable
Overall bit rate : 3 953 kb/s
Encoded date : UTC 2018-03-12 09:51:48

Video
ID : 1
Format : AVC
Format/INFO : Advanced Video Codec
Format profile : High@L3.1
Format settings, CABAC : Yes
Format settings, RefFrames : 5 frames
Codec ID : V_MPEG4/ISO/AVC
Duration : 47 min 30 s
Bit rate mode : Variable
Bit rate : 3 567 kb/s
Maximum bit rate : 4 500 kb/s
Width : 1 280 pixels
Height : 720 pixels
Display aspect ratio : 16:9
Frame rate mode : Constant
Frame rate : 23.976 (24000/1001) FPS
Color space : YUV
Chroma subsampling : 4:2:0
Bit depth : 8 bits
Scan type : Progressive
Bits/(Pixel*Frame) : 0.161
Stream size : 1.18 GiB (90%)
Color range : Limited
Color primaries : BT.709
Transfer characteristics : BT.709
Matrix coefficients : BT.709

Audio
ID : 2
Format : AC-3
Format/INFO : Audio Coding 3
Format settings, Endianness : Big
Codec ID : A_AC3
Duration : 47 min 30 s
Bit rate mode : Constant
Bit rate : 384 kb/s
Channel(s) : 2 channels
Channel positions : Front: L R
Sampling rate : 48.0 kHz
Frame rate : 31.250 FPS (1536 SPF)
Bit depth : 16 bits
Compression mode : Lossy
Stream size : 130 MiB (10%)
Language : Polish
Service kind : Complete Main

====================================================

PODOBNE TORRENTY
Homeland [S07E04] [720p] [WEB] [H264-DEFLATE] [ENG] Homeland S07E04 [WEBRip] [XviD] [Lektor PL] Homeland [S07E04] [480p] [WEB-DL] [DD5.1] [XviD-Ralf] [Lektor PL] Shameless US S07E04 - I Am a Storm [720p.AMZN.WEBRip.x264.AC3] [Lektor PL] [ENG+Napisy PL] Gra o tron - Game of Thrones [S07E04] [720p] [AMZN] [WEB-DL] [AC3] [x264-Ralf] [Lektor PL] Gra o tron - Game of Thrones [S07E04]  [720p] [AMZN.WEB-DL.AC3.2.0.H264-Ralf] [Lektor PL] [BITCOMET] [FIONA4]
Szczegóły torrenta
TRACKER
Tracker Podstawowy: http://tracker.vanitycore.co:6969/announce

Multitrackery:

http://tracker.vanitycore.co:6969/announce
http://tracker.filetracker.pl:8089/announce
http://agusiq-torrents.pl:6969/announce
http://tracker.torrentyorg.pl/announce
udp://tracker.publicbt.com/announce
udp://9.rarbg.com:2740/announce
udp://t1.pow7.com/announce
udp://tracker.torrentbay.to:6969/announce
udp://tracker.prq.to/announce
udp://tracker.istole.it:80/announce
udp://exodus.desync.com:6969/announce
udp://tracker.leechers-paradise.org:6969/announce
udp://9.rarbg.me:2730/announce
http://retracker.omsk.ru:2710/announce
udp://shadowshq.eddie4.nl:6969/announce
http://mgtracker.org:2710/announce
http://tracker.tfile.me/announce
udp://tracker.glotorrents.com:6969/announce
udp://eddie4.nl:6969/announce
udp://torrent.gresille.org:80/announce
udp://poloniumsurfer.tk:6969/announce
udp://tracker.pomf.se:80/announce
udp://sugoi.pomf.se:80/announce
udp://tracker.openbittorrent.com:80/announce
udp://10.rarbg.com/announce

UAKTUALNIENIE
03/04/2018 18:43:39 (Jeśeli nie widac seeda kliknij na [uaktualnij] by odswieżyć statystyki).
[Lub sprawdź programem do pobierania torrentów, ponieważ niektóre trackery nie wyświetlają statystyk]
1 file
 
KOMENTARZE


Brak komentarzy...

DODAJ KOMENTARZ

Zaloguj się aby dodawać komentarze !!!



Wstecz








WRÓĆ NA GÓRĘ