FileTracker.PL - Darmowe polskie torrenty

Witaj drogi Towarzyszu!, jeżeli widzisz ten dymek to znaczy że nie jesteś zarejestrowany/zalogowany. Kliknij by się zarejestrować . Rejestracja zajmie mniej niż 30 sekund, a dzięki niej zyskasz możliwość pobierania, komentowania oraz dodawania torrentów !
User:  Hasło:     






Kategorie


Najczęściej pobierane w Grudniu


Detale Torrenta


The Big Bang Theory S11E12 - The Matrimonial Metric [1080p.WEB-DL.H.264.AC3] [Lektor PL]

S: 2L: 3P: 317
Dodał: Lukarusi Tracker:
Kondycja:Dodane:2018-03-12 13:20:39
Kategoria:Seriale  »  KomedioweRozmiar:814.08 MB
Język:Lektor PL  Lektor PLPobrali:POBRALI PLIK
Obserwuj:OBSERWUJ TORRENTAStaty:UAKTUALNIJ TRACKER
Download: Pobierz TorrentRaport:RAPORTUJ TORRENTA


produkcja: USA
gatunek: Komedia
twórca: Chuck Lorre, Bill Prady, Steven Molaro
muzyka: Barenaked Ladies, Benson Taylor
zdjęcia: Steven V. Silver
czas trwania: ok. 20 min.



Fizycy Leonard i Sheldon rozumieją wszystko począwszy od nieuchronnego przyciągania czarnej dziury, a skończywszy na skomplikowanej budowie atomu. Ale jeśli złożycie te atomy w kobietę, wtedy ich rozumowanie nagle się kończy. A kiedy Penny, kobieta ze wszystkimi atomami we właściwym miejscu, wprowadza się do mieszkania naprzeciwko, wszechświat Leonarda i Sheldona zaczyna się rozszerzać do rozmiarów, których nigdy nie podejrzewali.



Johnny Galecki - Leonard Hofstadter
Jim Parsons - Sheldon Cooper
Kaley Cuoco - Penny
Simon Helberg - Howard Wolowitz
Kunal Nayyar - Rajesh Koothrappali



Format : Matroska
Format version : Version 4 / Version 2
File size : 814 MiB
Duration : 20 min 21 s
Overall bit rate : 5 591 kb/s
Encoded date : UTC 2018-03-12 10:18:42

Video
ID : 1
Format : AVC
Format/INFO : Advanced Video Codec
Format profile : High@L4
Format settings, CABAC : Yes
Format settings, RefFrames : 4 frames
Codec ID : V_MPEG4/ISO/AVC
Duration : 20 min 21 s
Bit rate : 5 205 kb/s
Width : 1 912 pixels
Height : 1 072 pixels
Display aspect ratio : 16:9
Frame rate mode : Constant
Frame rate : 23.976 (24000/1001) FPS
Color space : YUV
Chroma subsampling : 4:2:0
Bit depth : 8 bits
Scan type : Progressive
Bits/(Pixel*Frame) : 0.106
Stream size : 758 MiB (93%)
Color range : Limited
Color primaries : BT.709
Transfer characteristics : BT.709
Matrix coefficients : BT.709

Audio
ID : 2
Format : AC-3
Format/INFO : Audio Coding 3
Format settings, Endianness : Big
Codec ID : A_AC3
Duration : 20 min 21 s
Bit rate mode : Constant
Bit rate : 384 kb/s
Channel(s) : 2 channels
Channel positions : Front: L R
Sampling rate : 48.0 kHz
Frame rate : 31.250 FPS (1536 SPF)
Bit depth : 16 bits
Compression mode : Lossy
Stream size : 55.9 MiB (7%)
Language : Polish
Service kind : Complete Main

====================================================

PODOBNE TORRENTY
The Big Bang Theory S11E12-15 [1080p.WEB-DL.H.264.DD5.1] [Napisy PL] The Big Bang Theory S11E03-04 [1080p.WEB-DL.H.264.AC3] [Lektor PL] The Big Bang Theory S11E08-10 [1080p.WEB-DL.H.264.AC3] [Lektor PL] The Big Bang Theory [S11E05] [1080p.WEB-DL.H.264.AC3] [Lektor PL] The Big Bang Theory S11E14-15 [1080p.WEB-DL.H.264.AC3] [Lektor PL] The Big Bang Theory S11E18-19 [1080p.WEB-DL.H.264.AC3] [Lektor PL]
Szczegóły torrenta
TRACKER
Tracker Podstawowy: http://tracker.vanitycore.co:6969/announce

Multitrackery:

http://tracker.vanitycore.co:6969/announce
http://tracker.filetracker.pl:8089/announce
http://agusiq-torrents.pl:6969/announce
http://tracker.torrentyorg.pl/announce
udp://tracker.publicbt.com/announce
udp://9.rarbg.com:2740/announce
udp://t1.pow7.com/announce
udp://tracker.torrentbay.to:6969/announce
udp://tracker.prq.to/announce
udp://tracker.istole.it:80/announce
udp://exodus.desync.com:6969/announce
udp://tracker.leechers-paradise.org:6969/announce
udp://9.rarbg.me:2730/announce
http://retracker.omsk.ru:2710/announce
udp://shadowshq.eddie4.nl:6969/announce
http://mgtracker.org:2710/announce
http://tracker.tfile.me/announce
udp://tracker.glotorrents.com:6969/announce
udp://eddie4.nl:6969/announce
udp://torrent.gresille.org:80/announce
udp://poloniumsurfer.tk:6969/announce
udp://tracker.pomf.se:80/announce
udp://sugoi.pomf.se:80/announce
udp://tracker.openbittorrent.com:80/announce
udp://10.rarbg.com/announce

UAKTUALNIENIE
28/08/2018 23:54:31 (Jeśeli nie widac seeda kliknij na [uaktualnij] by odswieżyć statystyki).
[Lub sprawdź programem do pobierania torrentów, ponieważ niektóre trackery nie wyświetlają statystyk]
1 file
 
KOMENTARZE


Brak komentarzy...

DODAJ KOMENTARZ

Zaloguj się aby dodawać komentarze !!!



Wstecz








WRÓĆ NA GÓRĘ