FileTracker.PL - Darmowe polskie torrenty

Witaj drogi Towarzyszu!, jeżeli widzisz ten dymek to znaczy że nie jesteś zarejestrowany/zalogowany. Kliknij by się zarejestrować . Rejestracja zajmie mniej niż 30 sekund, a dzięki niej zyskasz możliwość pobierania, komentowania oraz dodawania torrentów !
User:  Hasło:     






Kategorie


Najczęściej pobierane w Grudniu


Detale Torrenta


The X-Files S11E08 - Familiar [1080p.AMZN.WEB-DL.H.264.AC3] [Lektor PL]

S: 2L: 33P: 95
Dodał: Lukarusi Tracker:
Kondycja:Dodane:2018-03-12 13:04:34
Kategoria:Seriale  »  Sci-Fi / FantasyRozmiar:3.56 GB
Język:Lektor PL  Lektor PLPobrali:POBRALI PLIK
Obserwuj:OBSERWUJ TORRENTAStaty:UAKTUALNIJ TRACKER
Download: Pobierz TorrentRaport:RAPORTUJ TORRENTA


produkcja: USA, Kanada
gatunek: Sci-Fi, Thriller, Dramat
reżyseria: Chris Carter, Carol Banker, Kevin Hooks
scenariusz: Chris Carter, James Wong, Gabe Rotter
zdjęcia: Joel Ransom
muzyka: Mark Snow
czas trwania: ok. 44 min.



Kontynuacja serialu "Z archiwum X", który gościł na antenie w latach 1993-2002. Kolejne odcinki, w których agenci Scully i Mulder ponownie wyjaśniają paranormalne zagadki.



David Duchovny - Fox Mulder
Gillian Anderson - Dana Scully
Mitch Pileggi - Walter Skinner
William B. Davis - The Smoking Man
Dean Haglund - Richard "Ringo" Langly
Annabeth Gish - Monica Reyes
James Pickens Jr. - Alvin Kersh
Chris Owens - Jeffrey Spender



Format : Matroska
Format version : Version 4 / Version 2
File size : 3.56 GiB
Duration : 43 min 56 s
Overall bit rate mode : Variable
Overall bit rate : 11.6 Mb/s
Encoded date : UTC 2018-03-12 09:10:59

Video
ID : 1
Format : AVC
Format/INFO : Advanced Video Codec
Format profile : High@L4
Format settings, CABAC : Yes
Format settings, RefFrames : 4 frames
Codec ID : V_MPEG4/ISO/AVC
Duration : 43 min 56 s
Bit rate mode : Variable
Bit rate : 11.2 Mb/s
Maximum bit rate : 15.0 Mb/s
Width : 1 920 pixels
Height : 1 080 pixels
Display aspect ratio : 16:9
Frame rate mode : Constant
Frame rate : 23.976 (24000/1001) FPS
Color space : YUV
Chroma subsampling : 4:2:0
Bit depth : 8 bits
Scan type : Progressive
Bits/(Pixel*Frame) : 0.225
Stream size : 3.44 GiB (97%)
Color range : Limited
Color primaries : BT.709
Transfer characteristics : BT.709
Matrix coefficients : BT.709

Audio
ID : 2
Format : AC-3
Format/INFO : Audio Coding 3
Format settings, Endianness : Big
Codec ID : A_AC3
Duration : 43 min 56 s
Bit rate mode : Constant
Bit rate : 384 kb/s
Channel(s) : 2 channels
Channel positions : Front: L R
Sampling rate : 48.0 kHz
Frame rate : 31.250 FPS (1536 SPF)
Bit depth : 16 bits
Compression mode : Lossy
Stream size : 121 MiB (3%)
Language : Polish
Service kind : Complete Main

====================================================

PODOBNE TORRENTY
Z Archiwum X - The X-Files [S11E08] [480p] [WEB-DL] [DD5.1] [XviD-Ralf] [Lektor PL] Z Archiwum X - The X-Files (2017) [S11E08] [720p] [HDTV] [XViD] [AC3-H1] [Lektor PL] Z Archiwum X - The X-Files [S11E08] [HDTV] [x264-SVA] [ENG] Z Archiwum X - The X-Files [S11E08] [720p] [HDTV] [x264-AVS] [ENG] The X-Files S11E02 - This [1080p.AMZN.WEB-DL.H.264.AC3] [Lektor PL] The X-Files S11E03 - PLus One [1080p.AMZN.WEB-DL.H.264.AC3] [Lektor PL]
Szczegóły torrenta
TRACKER
Tracker Podstawowy: http://tracker.vanitycore.co:6969/announce

Multitrackery:

http://tracker.vanitycore.co:6969/announce
http://tracker.filetracker.pl:8089/announce
http://agusiq-torrents.pl:6969/announce
http://tracker.torrentyorg.pl/announce
udp://tracker.publicbt.com/announce
udp://9.rarbg.com:2740/announce
udp://t1.pow7.com/announce
udp://tracker.torrentbay.to:6969/announce
udp://tracker.prq.to/announce
udp://tracker.istole.it:80/announce
udp://exodus.desync.com:6969/announce
udp://tracker.leechers-paradise.org:6969/announce
udp://9.rarbg.me:2730/announce
http://retracker.omsk.ru:2710/announce
udp://shadowshq.eddie4.nl:6969/announce
http://mgtracker.org:2710/announce
http://tracker.tfile.me/announce
udp://tracker.glotorrents.com:6969/announce
udp://eddie4.nl:6969/announce
udp://torrent.gresille.org:80/announce
udp://poloniumsurfer.tk:6969/announce
udp://tracker.pomf.se:80/announce
udp://sugoi.pomf.se:80/announce
udp://tracker.openbittorrent.com:80/announce
udp://10.rarbg.com/announce

UAKTUALNIENIE
12/03/2018 15:43:27 (Jeśeli nie widac seeda kliknij na [uaktualnij] by odswieżyć statystyki).
[Lub sprawdź programem do pobierania torrentów, ponieważ niektóre trackery nie wyświetlają statystyk]
1 file
 
KOMENTARZE


Brak komentarzy...

DODAJ KOMENTARZ

Zaloguj się aby dodawać komentarze !!!



Wstecz








WRÓĆ NA GÓRĘ