FileTracker.PL - Darmowe polskie torrenty

Witaj drogi Towarzyszu!, jeżeli widzisz ten dymek to znaczy że nie jesteś zarejestrowany/zalogowany. Kliknij by się zarejestrować . Rejestracja zajmie mniej niż 30 sekund, a dzięki niej zyskasz możliwość pobierania, komentowania oraz dodawania torrentów !
User:  Hasło:     






Kategorie


Najczęściej pobierane w Sierpniu


Detale Torrenta


Chance S02E02 - A Very Special Onion [1080p.HULU.WEB-DL.H.264.AC3] [Lektor PL]

S: 1L: 4P: 65
Dodał: Lukarusi Tracker:
Kondycja:Dodane:2018-02-12 21:20:17
Kategoria:Seriale  »  DramatRozmiar:1.83 GB
Język:Lektor PL  Lektor PLPobrali:POBRALI PLIK
Obserwuj:OBSERWUJ TORRENTAStaty:UAKTUALNIJ TRACKER
Download: Pobierz TorrentRaport:RAPORTUJ TORRENTA


produkcja: USA
gatunek: Dramat, Thriller
scenariusz: Alexandra Cunningham, Kem Nunn, Peter Elkoff
reżyseria: Michael Lehmann, Lenny Abrahamson, Daniel Attias
muzyka: Will Bates
zdjęcia: Terry Stacey, Michael Bonvillain
czas trwania: ok. 50 min.



Borykający się ze skomplikowaną sprawą rozwodową i znudzony rutyną swojej dotychczasowej pracy, Chance postanawia pomóc tajemniczej kobiecie o imieniu Jaclyn, która wyznaje, że w domu zmaga się z brutalnym mężem. W ten sposób lekarz zostaje wciągnięty do zupełnie zdemoralizowanego, pełnego kłamstw i przemocy świata.



Hugh Laurie - Eldon Chance
Ethan Suplee - D
LisaGay Hamilton - Suzanne Silver
Greta Lee - Lucy
Stefania LaVie Owen - Nicole Chance
Paul Adelstein - Raymond Blackstone
Gretchen Mol - Jaclyn Blackstone
Clarke Peters - Carl
Diane Farr - Christina



Format : Matroska
Format version : Version 4 / Version 2
File size : 1.83 GiB
Duration : 49 min 47 s
Overall bit rate : 5 259 kb/s
Encoded date : UTC 2018-02-12 18:24:55

Video
ID : 1
Format : AVC
Format/INFO : Advanced Video Codec
Format profile : High@L4
Format settings, CABAC : Yes
Format settings, RefFrames : 4 frames
Codec ID : V_MPEG4/ISO/AVC
Duration : 49 min 47 s
Bit rate : 4 873 kb/s
Width : 1 920 pixels
Height : 1 080 pixels
Display aspect ratio : 16:9
Frame rate mode : Constant
Frame rate : 23.976 (24000/1001) FPS
Color space : YUV
Chroma subsampling : 4:2:0
Bit depth : 8 bits
Scan type : Progressive
Bits/(Pixel*Frame) : 0.098
Stream size : 1.70 GiB (93%)

Audio
ID : 2
Format : AC-3
Format/INFO : Audio Coding 3
Format settings, Endianness : Big
Codec ID : A_AC3
Duration : 49 min 47 s
Bit rate mode : Constant
Bit rate : 384 kb/s
Channel(s) : 2 channels
Channel positions : Front: L R
Sampling rate : 48.0 kHz
Frame rate : 31.250 FPS (1536 SPF)
Bit depth : 16 bits
Compression mode : Lossy
Stream size : 137 MiB (7%)
Language : Polish
Service kind : Complete Main

====================================================

PODOBNE TORRENTY
Chance S02E02 - A Very Special Onion [1080p.HULU.WEB-DL.H.264.AAC2.0] [Napisy PL] Chance S02E10 - Especially If You Run Away [1080p.HULU.WEB-DL.H.264.AC3] [Lektor PL] Chance S02E09 - A Madness of Two [1080p.HULU.WEB-DL.H.264.AC3] [Lektor PL] Chance S02E01 - Multiaxial System [1080p.HULU.WEB-DL.H.264.AC3] [Lektor PL] Chance S02E03 - The Flitcraft Parable [1080p.HULU.WEB-DL.H.264.AC3] [Lektor PL] Chance S02E04 - The Coping Mechanism [1080p.HULU.WEB-DL.H.264.AC3] [Lektor PL]
Szczegóły torrenta
TRACKER
Tracker Podstawowy: http://tracker.vanitycore.co:6969/announce

Multitrackery:

http://tracker.vanitycore.co:6969/announce
http://tracker.filetracker.pl:8089/announce
http://agusiq-torrents.pl:6969/announce
http://tracker.torrentyorg.pl/announce
udp://tracker.publicbt.com/announce
udp://9.rarbg.com:2710/announce
udp://t1.pow7.com/announce
udp://tracker.torrentbay.to:6969/announce
udp://tracker.prq.to/announce
udp://tracker.istole.it:80/announce
udp://exodus.desync.com:6969/announce
udp://tracker.leechers-paradise.org:6969/announce
udp://9.rarbg.me:2740/announce
http://retracker.omsk.ru:2710/announce
udp://shadowshq.eddie4.nl:6969/announce
http://mgtracker.org:2710/announce
http://tracker.tfile.me/announce
udp://tracker.glotorrents.com:6969/announce
udp://eddie4.nl:6969/announce
udp://torrent.gresille.org:80/announce
udp://poloniumsurfer.tk:6969/announce
udp://tracker.pomf.se:80/announce
udp://sugoi.pomf.se:80/announce
udp://tracker.openbittorrent.com:80/announce
udp://10.rarbg.com/announce

UAKTUALNIENIE
17/03/2018 10:12:37 (Jeśeli nie widac seeda kliknij na [uaktualnij] by odswieżyć statystyki).
[Lub sprawdź programem do pobierania torrentów, ponieważ niektóre trackery nie wyświetlają statystyk]
1 file
 
KOMENTARZE


Brak komentarzy...

DODAJ KOMENTARZ

Zaloguj się aby dodawać komentarze !!!



Wstecz








WRÓĆ NA GÓRĘ