FileTracker.PL - Darmowe polskie torrenty

Witaj drogi Towarzyszu!, jeżeli widzisz ten dymek to znaczy że nie jesteś zarejestrowany/zalogowany. Kliknij by się zarejestrować . Rejestracja zajmie mniej niż 30 sekund, a dzięki niej zyskasz możliwość pobierania, komentowania oraz dodawania torrentów !
User:  Hasło:     






Kategorie


Najczęściej pobierane w Październiku


Detale Torrenta


Knightfall S01E10 - Do You See the Blue? [1080p.WEB-DL.H.264.AC3] [Lektor PL]

S: 16L: 11P: 55
Dodał: Lukarusi Tracker:
Kondycja:Dodane:2018-02-12 18:59:23
Kategoria:Seriale  »  PrzygodoweRozmiar:1.54 GB
Język:Lektor PL  Lektor PLPobrali:POBRALI PLIK
Obserwuj:OBSERWUJ TORRENTAStaty:UAKTUALNIJ TRACKER
Download: Pobierz TorrentRaport:RAPORTUJ TORRENTA


produkcja: USA
gatunek: Akcja, Przygodowy, Dramat
reżyseria: Douglas Mackinnon, David Petrarca, Metin Hüseyin
scenariusz: Don Handfield, Dominic Minghella, Richard Rayner
muzyka: Andy Price
zdjęcia: Chris Manley
czas trwania: ok. 50 min.



Założony na początku XII wieku Zakon Ubogich Rycerzy Chrystusa i Świątyni Salomona, czyli templariuszy, wyrasta na jedną z najbardziej wpływowych i majętnych organizacji kościelnych w średniowiecznej Europie. Jednym z podstawowych zadań zakonników jest ochrona Świętego Graala oraz Ziemi Świętej. Sir Landry, członek zakonu i niezwykle dzielny wojownik, stara się ze wszystkich sił przewodzić walecznym braciom i wypełniać swoją powinność wobec Boga i króla.



Tom Cullen - Landry
Pádraic Delaney - Gawain
Simon Merrells - Tancrede
Olivia Ross - Queen Joan
Julian Ovenden - William De Nogaret
Ed Stoppard - King Philip
Sabrina Bartlett - Isabella
Bobby Schofield - Parsifal
Sarah-Sofie Boussnina - Adelina
Edward Bourne - Nicholas
Akin Gazi - Rashid
Cengiz Dervis - Roland



Format : Matroska
Format version : Version 4 / Version 2
File size : 1.54 GiB
Duration : 50 min 16 s
Overall bit rate : 4 399 kb/s
Encoded date : UTC 2018-02-12 17:47:30

Video
ID : 1
Format : AVC
Format/INFO : Advanced Video Codec
Format profile : High@L3.1
Format settings, CABAC : No
Format settings, RefFrames : 2 frames
Codec ID : V_MPEG4/ISO/AVC
Duration : 50 min 16 s
Bit rate : 4 013 kb/s
Width : 1 280 pixels
Height : 716 pixels
Display aspect ratio : 16:9
Frame rate mode : Constant
Frame rate : 23.976 (23976/1000) FPS
Color space : YUV
Chroma subsampling : 4:2:0
Bit depth : 8 bits
Scan type : Progressive
Bits/(Pixel*Frame) : 0.183
Stream size : 1.41 GiB (91%)
Color range : Limited
Color primaries : BT.709
Transfer characteristics : BT.709
Matrix coefficients : BT.709

Audio
ID : 2
Format : AC-3
Format/INFO : Audio Coding 3
Format settings, Endianness : Big
Codec ID : A_AC3
Duration : 50 min 16 s
Bit rate mode : Constant
Bit rate : 384 kb/s
Channel(s) : 2 channels
Channel positions : Front: L R
Sampling rate : 48.0 kHz
Frame rate : 31.250 FPS (1536 SPF)
Bit depth : 16 bits
Compression mode : Lossy
Stream size : 138 MiB (9%)
Language : Polish
Service kind : Complete Main

====================================================

PODOBNE TORRENTY
TemPLariusze - Knightfall [S01E10] [FINAŁ] [1080p] [WEB-DL] [AC3] [x264-Ralf] [Lektor PL] [D.T.H0608] TemPLariusze - Knightfall (S01E10 - FINAŁ) [720p.WEBRip.x264-666] [Lektor PL] TemPLariusze - Knightfall [S01E10] [FINAŁ] [480p] [WEB-DL] [DD2.0] [XviD-Ralf] [Lektor PL] TemPLariusze - Knightfall: You'd Know What To Do (2017) [S01E10] [720p] [HDTV] [XViD] [AC3-H1] [Lektor PL] [Finał]  TemPLariusze - Knightfall [S01E10] [HDTV] [x264-KILLERS] [ENG] TemPLariusze - Knightfall [S01E10] [720p] [HDTV] [x264-KILLERS] [ENG]
Szczegóły torrenta
TRACKER
Tracker Podstawowy: http://tracker.vanitycore.co:6969/announce

Multitrackery:

http://tracker.vanitycore.co:6969/announce
http://tracker.filetracker.pl:8089/announce
http://agusiq-torrents.pl:6969/announce
http://tracker.torrentyorg.pl/announce
udp://tracker.publicbt.com/announce
udp://9.rarbg.com:2710/announce
udp://t1.pow7.com/announce
udp://tracker.torrentbay.to:6969/announce
udp://tracker.prq.to/announce
udp://tracker.istole.it:80/announce
udp://exodus.desync.com:6969/announce
udp://tracker.leechers-paradise.org:6969/announce
udp://9.rarbg.me:2740/announce
http://retracker.omsk.ru:2710/announce
udp://shadowshq.eddie4.nl:6969/announce
http://mgtracker.org:2710/announce
http://tracker.tfile.me/announce
udp://tracker.glotorrents.com:6969/announce
udp://eddie4.nl:6969/announce
udp://torrent.gresille.org:80/announce
udp://poloniumsurfer.tk:6969/announce
udp://tracker.pomf.se:80/announce
udp://sugoi.pomf.se:80/announce
udp://tracker.openbittorrent.com:80/announce
udp://10.rarbg.com/announce

UAKTUALNIENIE
12/02/2018 21:53:58 (Jeśeli nie widac seeda kliknij na [uaktualnij] by odswieżyć statystyki).
[Lub sprawdź programem do pobierania torrentów, ponieważ niektóre trackery nie wyświetlają statystyk]
1 file
 
KOMENTARZE


Brak komentarzy...

DODAJ KOMENTARZ

Zaloguj się aby dodawać komentarze !!!



Wstecz








WRÓĆ NA GÓRĘ