FileTracker.PL - Darmowe polskie torrenty

Witaj drogi Towarzyszu!, jeżeli widzisz ten dymek to znaczy że nie jesteś zarejestrowany/zalogowany. Kliknij by się zarejestrować . Rejestracja zajmie mniej niż 30 sekund, a dzięki niej zyskasz możliwość pobierania, komentowania oraz dodawania torrentów !
User:  Hasło:     






Kategorie


Najczęściej pobierane w Maju


Detale Torrenta


Bron/Broen S04E03-04 [720p.WEB-DL.H.264.AC3] [Lektor PL] [DK+Napisy PL]

S: 11L: 4P: 219
Dodał: Lukarusi Tracker:
Kondycja:Dodane:2018-02-12 18:01:59
Kategoria:Seriale  »  KryminalneRozmiar:2.54 GB
Język:Lektor PL  Lektor PLPobrali:POBRALI PLIK
Obserwuj:OBSERWUJ TORRENTAStaty:UAKTUALNIJ TRACKER
Download: Pobierz TorrentRaport:RAPORTUJ TORRENTA


UWAGA! Początek epizodu tj. przypomnienie poprzednich odcinków z napisami.

produkcja: Szwecja, Dania
gatunek: Kryminał, Thriller
reżyseria: Henrik Georgsson, Rumle Hammerich
scenariusz: Torleif Hoppe, Camilla Ahlgren, Veronica Zacco
zdjęcia: Carl Sundberg, Lars Reinholdt
muzyka: Patrik Andrén, Uno Helmersson
czas trwania: ok. 58 min.



Nowy sezon rozpoczyna się półtora roku po wydarzeniach z finału trzeciego sezonu. Na Peberholm, małej sztucznej wyspie u wybrzeży duńskiej części cieśniny Øresund, dochodzi do brutalnego zabójstwa. Ofiara to Margrethe Thormod, dyrektor generalna agencji migracyjnej w Kopenhadze.



Sofia Helin - Saga
Rafael Pettersson - John
Sarah Boberg - Lillian
Dag Malmberg - Hans
Thure Lindhardt - Henrik
Maria Kulle - Linn
Julie Carlsen - Barbara
Mikael Birkkjær - Jonas
Anders Mossling - Frank
Thomas W. Gabrielsson - Niels
Sandra Yi Sencindiver - Susanne
Lena Strömdahl - Harriet



Format : Matroska
Format version : Version 4 / Version 2
File size : 1.27 GiB
Duration : 57 min 58 s
Overall bit rate : 3 133 kb/s
Encoded date : UTC 2018-02-12 16:38:50

Video
ID : 1
Format : AVC
Format/INFO : Advanced Video Codec
Format profile : High@L4.1
Format settings, CABAC : Yes
Format settings, RefFrames : 4 frames
Codec ID : V_MPEG4/ISO/AVC
Duration : 57 min 58 s
Bit rate mode : Constant
Bit rate : 2 363 kb/s
Nominal bit rate : 3 000 kb/s
Width : 1 280 pixels
Height : 720 pixels
Display aspect ratio : 16:9
Frame rate mode : Constant
Frame rate : 25.000 FPS
Color space : YUV
Chroma subsampling : 4:2:0
Bit depth : 8 bits
Scan type : Progressive
Bits/(Pixel*Frame) : 0.103
Stream size : 980 MiB (75%)
Color range : Limited
Color primaries : BT.709
Transfer characteristics : BT.709
Matrix coefficients : BT.709

Audio 1
ID : 2
Format : AC-3
Format/INFO : Audio Coding 3
Format settings, Endianness : Big
Codec ID : A_AC3
Duration : 57 min 58 s
Bit rate mode : Constant
Bit rate : 384 kb/s
Channel(s) : 2 channels
Channel positions : Front: L R
Sampling rate : 48.0 kHz
Frame rate : 31.250 FPS (1536 SPF)
Bit depth : 16 bits
Compression mode : Lossy
Stream size : 159 MiB (12%)
Language : Polish
Service kind : Complete Main
Default : Yes
Forced : Yes

Audio 2
ID : 3
Format : AC-3
Format/INFO : Audio Coding 3
Format settings, Endianness : Big
Codec ID : A_AC3
Duration : 57 min 58 s
Bit rate mode : Constant
Bit rate : 384 kb/s
Channel(s) : 2 channels
Channel positions : Front: L R
Sampling rate : 48.0 kHz
Frame rate : 31.250 FPS (1536 SPF)
Bit depth : 16 bits
Compression mode : Lossy
Stream size : 159 MiB (12%)
Language : Danish
Service kind : Complete Main
Default : No
Forced : No

Text 1
ID : 4
Format : UTF-8
Codec ID : S_TEXT/UTF8
Codec ID/INFO : UTF-8 Plain Text
Duration : 1 min 27 s
Bit rate : 109 b/s
Count of elements : 24
Stream size : 1.18 KiB (0%)
Default : Yes
Forced : Yes

Text 2
ID : 5
Format : UTF-8
Codec ID : S_TEXT/UTF8
Codec ID/INFO : UTF-8 Plain Text
Duration : 57 min 18 s
Bit rate : 47 b/s
Count of elements : 558
Stream size : 20.1 KiB (0%)
Language : Polish
Default : No
Forced : No

====================================================

PODOBNE TORRENTY
Bron/Broen S04E01-02 [720p.WEB-DL.H.264.AC3] [Lektor PL] [DK+Napisy PL] Bron/Broen S04E05-06 [720p.WEB-DL.H.264.AC3] [Lektor PL] [DK+Napisy PL] Bron/Broen S04E07-08 [720p.WEB-DL.H.264.AC3] [Lektor PL] [DK+Napisy PL] Bron/Broen S04E01-05 [720p.WEB-DL.H.264.AAC2.0] [Napisy PL] Bron/Broen S04E06 [720p.WEB-DL.H.264.AAC2.0] [Napisy PL] Bron/Broen S04E07 [720p.WEB-DL.H.264.AAC2.0] [Napisy PL]
Szczegóły torrenta
TRACKER
Tracker Podstawowy: http://tracker.vanitycore.co:6969/announce

Multitrackery:

http://tracker.vanitycore.co:6969/announce
http://tracker.filetracker.pl:8089/announce
http://agusiq-torrents.pl:6969/announce
http://tracker.torrentyorg.pl/announce
udp://tracker.publicbt.com/announce
udp://9.rarbg.com:2710/announce
udp://t1.pow7.com/announce
udp://tracker.torrentbay.to:6969/announce
udp://tracker.prq.to/announce
udp://tracker.istole.it:80/announce
udp://exodus.desync.com:6969/announce
udp://tracker.leechers-paradise.org:6969/announce
udp://9.rarbg.me:2740/announce
http://retracker.omsk.ru:2710/announce
udp://shadowshq.eddie4.nl:6969/announce
http://mgtracker.org:2710/announce
http://tracker.tfile.me/announce
udp://tracker.glotorrents.com:6969/announce
udp://eddie4.nl:6969/announce
udp://torrent.gresille.org:80/announce
udp://poloniumsurfer.tk:6969/announce
udp://tracker.pomf.se:80/announce
udp://sugoi.pomf.se:80/announce
udp://tracker.openbittorrent.com:80/announce
udp://10.rarbg.com/announce

UAKTUALNIENIE
01/03/2018 13:36:35 (Jeśeli nie widac seeda kliknij na [uaktualnij] by odswieżyć statystyki).
[Lub sprawdź programem do pobierania torrentów, ponieważ niektóre trackery nie wyświetlają statystyk]
2 pliki
 
KOMENTARZE


Brak komentarzy...

DODAJ KOMENTARZ

Zaloguj się aby dodawać komentarze !!!



Wstecz








WRÓĆ NA GÓRĘ