FileTracker.PL - Darmowe polskie torrenty

Witaj drogi Towarzyszu!, jeżeli widzisz ten dymek to znaczy że nie jesteś zarejestrowany/zalogowany. Kliknij by się zarejestrować . Rejestracja zajmie mniej niż 30 sekund, a dzięki niej zyskasz możliwość pobierania, komentowania oraz dodawania torrentów !
User:  Hasło:     






Kategorie


Najczęściej pobierane w Wrześniu


Remonty i Wykończenia wnętrz-opolskie-dolnośląskie

Remonty i Wykończenia wnętrz-opolskie-dolnośląskie

Detale Torrenta


Suburra - Sezon 1 [720p.NF.WEBRip.x264.AC3] [Lektor PL]

S: 2L: 14P: 527
Dodał: Lukarusi Tracker:
Kondycja:Dodane:2017-10-14 11:22:42
Kategoria:Seriale  »  KryminalneRozmiar:9.23 GB
Język:Lektor PL  Lektor PL------------------
Obserwuj:OBSERWUJ TORRENTAStaty:UAKTUALNIJ TRACKER
Download: Pobierz TorrentRaport:RAPORTUJ TORRENTA


produkcja: Włochy
gatunek: Kryminał, Akcja
reżyseria: Giuseppe Capotondi, Andrea Molaioli, Michele Placido
scenariusz: Carlo Bonini, Giancarlo De Cataldo, Ezio Abbate
zdjęcia: Arnaldo Catinari
dźwięk: Joshua Berman
czas trwania: ok. 42-62 min.



Rok 2008. Konflikt wokół terenu w nadmorskim miasteczku niedaleko Rzymu przeradza się w walkę na śmierć i życie między gangsterami, skorumpowanymi politykami i Watykanem.



Alessandro Borghi - Aureliano Adami
Giacomo Ferrara - Spadino Anacleti
Eduardo Valdarnini - Gabriele Marchilli
Francesco Acquaroli - Samuraj
Filippo Nigro - Amedeo Cinaglia
Claudia Gerini - Sara Monaschi
Adam Dionysus - Manfredi Anacleti
Barbara Chichiarelli - Livia Adami
Alessandro Bernardini - Guerri
Lorena Cesarini - Isabelle
Daniele Amendola - Aldo



Format : Matroska
Format version : Version 4 / Version 2
File size : 1.16 GiB
Duration : 1 h 2 min
Overall bit rate mode : Variable
Overall bit rate : 2 671 kb/s
Encoded date : UTC 2017-10-14 07:17:05

Video
ID : 1
Format : AVC
Format/INFO : Advanced Video Codec
Format profile : Main@L3.1
Format settings, CABAC : Yes
Format settings, RefFrames : 3 frames
Codec ID : V_MPEG4/ISO/AVC
Duration : 1 h 2 min
Bit rate mode : Variable
Bit rate : 2 370 kb/s
Maximum bit rate : 3 555 kb/s
Width : 1 280 pixels
Height : 720 pixels
Display aspect ratio : 16:9
Frame rate mode : Constant
Frame rate : 25.000 FPS
Color space : YUV
Chroma subsampling : 4:2:0
Bit depth : 8 bits
Scan type : Progressive
Bits/(Pixel*Frame) : 0.103
Stream size : 1 021 MiB (86%)
Writing library : x264 core 118

Audio
ID : 2
Format : AC-3
Format/INFO : Audio Coding 3
Format settings, Endianness : Big
Codec ID : A_AC3
Duration : 1 h 2 min
Bit rate mode : Constant
Bit rate : 384 kb/s
Channel(s) : 2 channels
Channel positions : Front: L R
Sampling rate : 48.0 kHz
Frame rate : 31.250 FPS (1536 SPF)
Bit depth : 16 bits
Compression mode : Lossy
Stream size : 171 MiB (14%)
Language : Polish
Service kind : Complete Main

====================================================

PODOBNE TORRENTY
Suburra - Suburra: La serie *2019* [Sezon 02] [720p] [NF] [WEB-DL] [AC3] [x264-KiT] [Lektor PL] Suburra (2019) [SEZON 2] [MULTi] [1080p] [NF] [WEBRip] [DDP5.1] [x264-Ralf] [Lektor PL i Napisy PL] Suburra - Suburra La serie *2017-* [S01-S02] [720p.NF.WEB-DL.AC3-LPT,KiT] [Lektor PL] [Alusia] Suburra *2017* Sezon 1 [720p.NF.WEB-DL.AC3-LPT] [Lektor PL] [Alusia] Suburra (2019) [S02E08] [MULTi] [1080p] [NF] [WEBRip] [DDP5.1] [x264-Ralf] [Lektor PL i Napisy PL] Suburra *2015* [720p] [BluRay] [AC3] [x264-KiT] [Lektor PL] [AgusiQ]
Szczegóły torrenta
TRACKER
Tracker Podstawowy: http://agusiq-torrents.pl:6969/announce

Multitrackery:

http://agusiq-torrents.pl:6969/announce
http://tracker.filetracker.pl:8089/announce
http://tracker.torrentyorg.pl/announce
udp://tracker.publicbt.com/announce
udp://9.rarbg.com:2710/announce
udp://t1.pow7.com/announce
udp://tracker.torrentbay.to:6969/announce
udp://tracker.prq.to/announce
udp://tracker.istole.it:80/announce
udp://exodus.desync.com:6969/announce
udp://tracker.leechers-paradise.org:6969/announce
udp://9.rarbg.me:2740/announce
http://retracker.omsk.ru:2710/announce
udp://shadowshq.eddie4.nl:6969/announce
http://mgtracker.org:2710/announce
http://tracker.tfile.me/announce
udp://tracker.glotorrents.com:6969/announce
udp://eddie4.nl:6969/announce
udp://torrent.gresille.org:80/announce
udp://poloniumsurfer.tk:6969/announce
udp://tracker.pomf.se:80/announce
udp://sugoi.pomf.se:80/announce
udp://tracker.openbittorrent.com:80/announce
udp://10.rarbg.com/announce

UAKTUALNIENIE
11/09/2019 23:55:48 (Jeśeli nie widac seeda kliknij na [uaktualnij] by odswieżyć statystyki).
[Lub sprawdź programem do pobierania torrentów, ponieważ niektóre trackery nie wyświetlają statystyk]
10 pliki
 
KOMENTARZE


leon3312/09/2019 08.33.35
64%    :/
Status użytkownika:   12/09/2019 08.33.35  TOP
leon3311/09/2019 11.19.18
seed  plz
Status użytkownika:   11/09/2019 11.19.18  TOP

DODAJ KOMENTARZ

Zaloguj się aby dodawać komentarze !!!



Wstecz








WRÓĆ NA GÓRĘ