FileTracker.PL - Darmowe polskie torrenty

Witaj drogi Towarzyszu!, jeżeli widzisz ten dymek to znaczy że nie jesteś zarejestrowany/zalogowany. Kliknij by się zarejestrować . Rejestracja zajmie mniej niż 30 sekund, a dzięki niej zyskasz możliwość pobierania, komentowania oraz dodawania torrentów !
User:  Hasło:     






Kategorie


Najczęściej pobierane w Grudniu


Remonty i Wykończenia wnętrz-opolskie-dolnośląskie

Remonty i Wykończenia wnętrz-opolskie-dolnośląskie

Detale Torrenta


Złodzieje Rowerów w CDQ (2010) [TVRip] [PL]

S: 0L: 0P: 46
Dodał: BigLeecher Tracker:
Kondycja:Dodane:2017-09-24 21:58:29
Kategoria:Muzyka  »  PunkRozmiar:2.02 GB
Język:Muzyka Polska  Muzyka Polska------------------
Obserwuj:OBSERWUJ TORRENTAStaty:UAKTUALNIJ TRACKER
Download: Pobierz TorrentRaport:RAPORTUJ TORRENTA
koncert Polska 2013, 83 min

Jedna z czołowych polskich grup hardcore punkowych lat 90. XX wieku. Zespół powstał wiosną 1993 roku w Zambrowie. 26 kwietnia 2010 grupa została rozwiązana. Koncert zarejestrowany w CDQ jest ostatnim, pożegnalnym występem zespołu.


General
Złodzieje Rowerów w CDQ.mkv
Format : Matroska
Format version : Version 4 / Version 2
File size : 2.02 GiB
Duration : 1 h 22 min
Overall bit rate : 3 491 kb/s

Video
ID : 1
Format : AVC
Format/INFO : Advanced Video Codec

Duration : 1 h 22 min
Bit rate : 3 070 kb/s
Width : 704 pixels
Height : 576 pixels
Display aspect ratio : 1.222
Original display aspect rat : 16:9
Frame rate mode : Constant
Frame rate : 25.000 FPS
Standard : PAL
Color space : YUV
Stream size : 1.78 GiB (88%)

Audio #1
ID : 2
Format : E-AC-3
Format/INFO : Audio Coding 3
Format settings, Endianness : Big
Codec ID : A_EAC3
Duration : 1 h 22 min
Bit rate mode : Constant
Bit rate : 256 kb/s
Channel(s) : 6 channels
Channel positions : Front: L C R, Side: L R, LFE
Sampling rate : 48.0 kHz
Frame rate : 187.500 FPS (256 spf)
Compression mode : Lossy
Delay relative to video : -76 ms
Stream size : 152 MiB (7%)
Default : Yes
Forced : No

Audio #2
ID : 3
Format : E-AC-3
Format/INFO : Audio Coding 3
Format settings, Endianness : Big
Codec ID : A_EAC3
Duration : 1 h 22 min
Bit rate mode : Constant
Bit rate : 96.0 kb/s
Channel(s) : 2 channels
Channel positions : Front: L R
Sampling rate : 48.0 kHz
Frame rate : 187.500 FPS (256 spf)
Compression mode : Lossy
Delay relative to video : -60 ms
Stream size : 56.9 MiB (3%)
Default : Yes
Forced : No


Moderację proszę o pozostawienie tej pozycji w tym miejscu, ponieważ w dziale "Koncerty" zainteresowani tego nie znajdą.

====================================================

PODOBNE TORRENTY
Złodzieje Rowerów - Finał Live Warszawa (2010) [720p] [TVRip] [AVC] [FLAC] [PL] [D.T.m1125] Złodzieje Rowerów - Finał Live Warszawa (2010) [FLAC] [mp3@320] [.rar] [PL] [D.T.m1125] ZŁODZIEJE ROWERÓW - FINAŁ (2011) [WMA] [FALLEN ANGEL] ZŁODZIEJE ROWERÓW - FINAŁ (2011) [DVD5] [FALLEN ANGEL] Złodzieje Rowerów - Ladri di Biciclette *1948* [AC3.DVDRip.XviD-RETRO] [Lektor PL] HASłO 'tomek3583', Dennis Bailey, Keith Gates - Naprawa i konserwacja rowerów dla bystrzaków [RAR->PDF] [PL]
Szczegóły torrenta
TRACKER
Tracker Podstawowy: http://tracker.filetracker.pl:8089/announce

Multitrackery:

http://tracker.filetracker.pl:8089/announce
http://tracker.vanitycore.co:6969/announce

UAKTUALNIENIE
03/08/2018 19:40:20 (Jeśeli nie widac seeda kliknij na [uaktualnij] by odswieżyć statystyki).
[Lub sprawdź programem do pobierania torrentów, ponieważ niektóre trackery nie wyświetlają statystyk]
1 file
 
KOMENTARZE


Brak komentarzy...

DODAJ KOMENTARZ

Zaloguj się aby dodawać komentarze !!!



Wstecz








WRÓĆ NA GÓRĘ