FileTracker.PL - Darmowe polskie torrenty

Witaj drogi Towarzyszu!, jeżeli widzisz ten dymek to znaczy że nie jesteś zarejestrowany/zalogowany. Kliknij by się zarejestrować . Rejestracja zajmie mniej niż 30 sekund, a dzięki niej zyskasz możliwość pobierania, komentowania oraz dodawania torrentów !
User:  Hasło:     






Kategorie


Najczęściej pobierane w Listopadzie


Detale Torrenta


Salvation S01E11 - All In [720p.AMZN.WEBRip.x264.AC3] [Lektor PL]

S: 14L: 4P: 333
Dodał: Lukarusi Tracker:
Kondycja:Dodane:2017-09-12 12:28:55
Kategoria:Seriale  »  Sci-Fi / FantasyRozmiar:1.21 GB
Język:Lektor PL  Lektor PLPobrali:POBRALI PLIK
Obserwuj:OBSERWUJ TORRENTAStaty:UAKTUALNIJ TRACKER
Download: Pobierz TorrentRaport:RAPORTUJ TORRENTA


produkcja: USA
gatunek: Sci-Fi, Thriller, Dramat
reżyseria: Kenneth Fink, Juan Carlos Fresnadillo, Stuart Gillard
scenariusz: Elizabeth Kruger, Craig Shapiro, Christina M. Walker
zdjęcia: Mark Willis, Dave Sheridan
muzyka: John Paesano
czas trwania: ok. 43 min.



Bohaterami serialu są absolwent MIT Liamie oraz miliarder Darius Tanz, którzy INFOrmują niską rangą pracownicę Pentagonu, że pewna planetoida jest na kursie kolizyjnym z Ziemią. Do zderzenia ma dojść za pół roku.



Ian Anthony Dale - Harris Edwards
Santiago Cabrera - Darius Tanz
Jennifer Finnigan - Grace Barrows
Dennis Boutsikaris - Dr. Malcom Croft
Charlie Rowe - Liam Cole
Aaron Poole - Lazlo Simms
Kyle Alcock - Tanz employee
Lovina Yavari - Naomi



Format : Matroska
Format version : Version 4 / Version 2
File size : 1.21 GiB
Duration : 43 min 39 s
Overall bit rate : 3 961 kb/s
Encoded date : UTC 2017-09-12 10:03:43

Video
ID : 1
Format : AVC
Format/INFO : Advanced Video Codec
Format profile : High@L4.1
Format settings, CABAC : Yes
Format settings, RefFrames : 9 frames
Codec ID : V_MPEG4/ISO/AVC
Duration : 43 min 39 s
Bit rate : 3 575 kb/s
Width : 1 280 pixels
Height : 720 pixels
Display aspect ratio : 16:9
Frame rate mode : Constant
Frame rate : 23.976 (24000/1001) FPS
Color space : YUV
Chroma subsampling : 4:2:0
Bit depth : 8 bits
Scan type : Progressive
Bits/(Pixel*Frame) : 0.162
Stream size : 1.09 GiB (90%)
Writing library : x264 core 148

Audio
ID : 2
Format : AC-3
Format/INFO : Audio Coding 3
Format settings, Endianness : Big
Codec ID : A_AC3
Duration : 43 min 39 s
Bit rate mode : Constant
Bit rate : 384 kb/s
Channel(s) : 2 channels
Channel positions : Front: L R
Sampling rate : 48.0 kHz
Frame rate : 31.250 FPS (1536 SPF)
Bit depth : 16 bits
Compression mode : Lossy
Stream size : 120 MiB (10%)
Language : Polish
Service kind : Complete Main

====================================================

PODOBNE TORRENTY
Salvation S01E06-08 [720p.AMZN.WEBRip.x264.AC3] [Lektor PL] Salvation S01E01 - Pilot [720p.AMZN.WEBRip.x264.AC3] [Lektor PL] Salvation S01E02 - Another Trip Around the Sun [720p.AMZN.WEBRip.x264.AC3] [Lektor PL] Salvation S01E09 - Patriot Games [720p.AMZN.WEBRip.x264.AC3] [Lektor PL] Salvation S01E12 - The Wormwood Prophecy [720p.AMZN.WEBRip.x264.AC3] [Lektor PL] Salvation S01E13 - The PLot Against America [720p.AMZN.WEBRip.x264.AC3] [Lektor PL]
Szczegóły torrenta
TRACKER
Tracker Podstawowy: http://agusiq-torrents.pl:6969/announce

Multitrackery:

http://agusiq-torrents.pl:6969/announce
http://tracker.filetracker.pl:8089/announce
http://tracker.torrentyorg.pl/announce
udp://tracker.publicbt.com/announce
udp://9.rarbg.com:2710/announce
udp://t1.pow7.com/announce
udp://tracker.torrentbay.to:6969/announce
udp://tracker.prq.to/announce
udp://tracker.istole.it:80/announce
udp://exodus.desync.com:6969/announce
udp://tracker.leechers-paradise.org:6969/announce
udp://9.rarbg.me:2740/announce
http://retracker.omsk.ru:2710/announce
udp://shadowshq.eddie4.nl:6969/announce
http://mgtracker.org:2710/announce
http://tracker.tfile.me/announce
udp://tracker.glotorrents.com:6969/announce
udp://eddie4.nl:6969/announce
udp://torrent.gresille.org:80/announce
udp://poloniumsurfer.tk:6969/announce
udp://tracker.pomf.se:80/announce
udp://sugoi.pomf.se:80/announce
udp://tracker.openbittorrent.com:80/announce
udp://10.rarbg.com/announce

UAKTUALNIENIE
20/09/2017 01:18:51 (Jeśeli nie widac seeda kliknij na [uaktualnij] by odswieżyć statystyki).
[Lub sprawdź programem do pobierania torrentów, ponieważ niektóre trackery nie wyświetlają statystyk]
1 file
 
KOMENTARZE


Brak komentarzy...

DODAJ KOMENTARZ

Zaloguj się aby dodawać komentarze !!!



Wstecz