FileTracker.PL - Darmowe polskie torrenty

Witaj drogi Towarzyszu!, jeżeli widzisz ten dymek to znaczy że nie jesteś zarejestrowany/zalogowany. Kliknij by się zarejestrować . Rejestracja zajmie mniej niż 30 sekund, a dzięki niej zyskasz możliwość pobierania, komentowania oraz dodawania torrentów !
User:  Hasło:     






Kategorie


Najczęściej pobierane w Listopadzie


Detale Torrenta


Ray Donovan S05E05 - Shabbos Goy [720p.AMZN.WEB-DL.H.264.AC3] [Lektor PL] [ENG+Napisy PL]

S: 12L: 2P: 142
Dodał: Lukarusi Tracker:
Kondycja:Dodane:2017-09-12 12:20:11
Kategoria:Seriale  »  KryminalneRozmiar:1.10 GB
Język:Lektor PL  Lektor PLPobrali:POBRALI PLIK
Obserwuj:OBSERWUJ TORRENTAStaty:UAKTUALNIJ TRACKER
Download: Pobierz TorrentRaport:RAPORTUJ TORRENTA


produkcja: USA
gatunek: Kryminał, Dramat, Akcja
reżyseria: Allen Coulter, Greg Yaitanes, Daniel Attias
scenariusz: Ann Biderman, Ron Nyswaner, David Hollander
zdjęcia: Matthew Jensen
muzyka: Marcelo Zarvos
czas trwania: ok. 53 min.



Tytułowy bohater, Ray Donovan, zajmuje się zawodowo rozwiązywaniem problemów znanych i bogatych mieszkańców Los Angeles. Może on sprawić, że każdy problem zniknie, jednak nie może sobie poradzić z tymi, które piętrzy jego rodzina. Prawdziwe kłopoty zaczynają się, gdy jego ojciec zostaje niespodziewanie wypuszczony z więzienia.



Liev Schreiber - Ray Donovan
Jon Voight - Mickey Donovan
Paula Malcomson - Abby Donovan
Eddie Marsan - Terry Donovan
Kerris Dorsey - Bridget Donovan
Katherine Moennig - Lena
Steven Bauer - Avi
Peter Jacobson - Lee Drexler



Format : Matroska
Format version : Version 4 / Version 2
File size : 1.10 GiB
Duration : 52 min 52 s
Overall bit rate mode : Variable
Overall bit rate : 2 982 kb/s
Encoded date : UTC 2017-09-12 06:18:50

Video
ID : 1
Format : AVC
Format/INFO : Advanced Video Codec
Format profile : High@L3.1
Format settings, CABAC : Yes
Format settings, RefFrames : 5 frames
Codec ID : V_MPEG4/ISO/AVC
Duration : 52 min 52 s
Bit rate mode : Variable
Bit rate : 2 212 kb/s
Maximum bit rate : 4 500 kb/s
Width : 1 280 pixels
Height : 720 pixels
Display aspect ratio : 16:9
Frame rate mode : Constant
Frame rate : 23.976 (24000/1001) FPS
Color space : YUV
Chroma subsampling : 4:2:0
Bit depth : 8 bits
Scan type : Progressive
Bits/(Pixel*Frame) : 0.100
Stream size : 836 MiB (74%)
Color range : Limited
Color primaries : BT.709
Transfer characteristics : BT.709
Matrix coefficients : BT.709

Audio 1
ID : 2
Format : AC-3
Format/INFO : Audio Coding 3
Format settings, Endianness : Big
Codec ID : A_AC3
Duration : 52 min 52 s
Bit rate mode : Constant
Bit rate : 384 kb/s
Channel(s) : 2 channels
Channel positions : Front: L R
Sampling rate : 48.0 kHz
Frame rate : 31.250 FPS (1536 SPF)
Bit depth : 16 bits
Compression mode : Lossy
Stream size : 145 MiB (13%)
Language : Polish
Service kind : Complete Main
Default : Yes
Forced : Yes

Audio 2
ID : 3
Format : AC-3
Format/INFO : Audio Coding 3
Format settings, Endianness : Big
Codec ID : A_AC3
Duration : 52 min 52 s
Bit rate mode : Constant
Bit rate : 384 kb/s
Channel(s) : 6 channels
Channel positions : Front: L C R, Side: L R, LFE
Sampling rate : 48.0 kHz
Frame rate : 31.250 FPS (1536 SPF)
Bit depth : 16 bits
Compression mode : Lossy
Stream size : 145 MiB (13%)
Language : English
Service kind : Complete Main
Default : No
Forced : No

Text
ID : 4
Format : UTF-8
Codec ID : S_TEXT/UTF8
Codec ID/INFO : UTF-8 Plain Text
Duration : 47 min 47 s
Bit rate : 40 b/s
Count of elements : 484
Stream size : 14.1 KiB (0%)
Language : Polish
Default : No
Forced : No

====================================================

PODOBNE TORRENTY
Ray Donovan [S05E05] [480p] [AMZN] [WEB-DL] [AC3] [XviD-Ralf] [Lektor PL] Ray Donovan S05E02-03 [720p.AMZN.WEB-DL.H.264.AC3] [Lektor PL] [ENG+Napisy PL] Ray Donovan S05E01 - Abby [720p.AMZN.WEB-DL.H.264.AC3] [Lektor PL] [ENG+Napisy PL] Ray Donovan S05E04 - Sold [720p.AMZN.WEB-DL.H.264.AC3] [Lektor PL] [ENG+Napisy PL] Ray Donovan S05E08 - Horses [720p.AMZN.WEB-DL.H.264.AC3] [Lektor PL] [ENG+Napisy PL] Ray Donovan S05E11 - Michael [720p.AMZN.WEB-DL.H.264.AC3] [Lektor PL] [ENG+Napisy PL]
Szczegóły torrenta
TRACKER
Tracker Podstawowy: http://agusiq-torrents.pl:6969/announce

Multitrackery:

http://agusiq-torrents.pl:6969/announce
http://tracker.filetracker.pl:8089/announce
http://tracker.torrentyorg.pl/announce
udp://tracker.publicbt.com/announce
udp://9.rarbg.com:2710/announce
udp://t1.pow7.com/announce
udp://tracker.torrentbay.to:6969/announce
udp://tracker.prq.to/announce
udp://tracker.istole.it:80/announce
udp://exodus.desync.com:6969/announce
udp://tracker.leechers-paradise.org:6969/announce
udp://9.rarbg.me:2740/announce
http://retracker.omsk.ru:2710/announce
udp://shadowshq.eddie4.nl:6969/announce
http://mgtracker.org:2710/announce
http://tracker.tfile.me/announce
udp://tracker.glotorrents.com:6969/announce
udp://eddie4.nl:6969/announce
udp://torrent.gresille.org:80/announce
udp://poloniumsurfer.tk:6969/announce
udp://tracker.pomf.se:80/announce
udp://sugoi.pomf.se:80/announce
udp://tracker.openbittorrent.com:80/announce
udp://10.rarbg.com/announce

UAKTUALNIENIE
14/09/2017 07:58:40 (Jeśeli nie widac seeda kliknij na [uaktualnij] by odswieżyć statystyki).
[Lub sprawdź programem do pobierania torrentów, ponieważ niektóre trackery nie wyświetlają statystyk]
1 file
 
KOMENTARZE


Brak komentarzy...

DODAJ KOMENTARZ

Zaloguj się aby dodawać komentarze !!!



Wstecz