FileTracker.PL - Darmowe polskie torrenty

Witaj drogi Towarzyszu!, jeżeli widzisz ten dymek to znaczy że nie jesteś zarejestrowany/zalogowany. Kliknij by się zarejestrować . Rejestracja zajmie mniej niż 30 sekund, a dzięki niej zyskasz możliwość pobierania, komentowania oraz dodawania torrentów !
User:  Hasło:     






Kategorie


Najczęściej pobierane w Listopadzie


Detale Torrenta


Ballers S03E08 - Alley-Oops [720p.AMZN.WEB-DL.H.264.AC3] [Lektor PL]

S: 12L: 2P: 151
Dodał: Lukarusi Tracker:
Kondycja:Dodane:2017-09-12 12:10:50
Kategoria:Seriale  »  KomedioweRozmiar:727.04 MB
Język:Lektor PL  Lektor PLPobrali:POBRALI PLIK
Obserwuj:OBSERWUJ TORRENTAStaty:UAKTUALNIJ TRACKER
Download: Pobierz TorrentRaport:RAPORTUJ TORRENTA


POCZĄTEK TJ. PRZYPOMNIENIE POPRZEDNICH ODCINKÓW BEZ LEKTORA.

produkcja: USA
gatunek: Dramat, Komedia
reżyseria: Peter Berg
scenariusz: Stephen Levinson, Steve Sharlet
zdjęcia: Jaime Reynoso
czas trwania: ok. 32 min.



Akcja serialu toczy się w słonecznym Miami. Spencer jest emerytowanym zawodnikiem futbolu amerykańskiego, który chce spróbować swoich sił jako menedżer innych sportowców. Grono jego najbliższych przyjaciół to: Ricky – zdolny, ale wybuchowy skrzydłowy, który jest w równym stopniu znany z błyskotliwych występów na boisku, jak i ekscesów poza nim, Charles - emerytowany liniowy, który ma problemy z przystosowaniem się do realiów normalnego, niesportowego życia oraz Vernon - młody, świetnie zapowiadający się zawodnik, który obiecał sobie, że nigdy nie zapomni, skąd pochodzi. Wokół Spencera i jego kumpli kręci się mnóstwo różnych ludzi, co powoduje, że Spencer pakuje się w finansowe tarapaty. Wszyscy bohaterowie na boisku zachowują się jak zawodowcy, ale poza murawą czują się bardzo zagubieni.



Dwayne Johnson - Spencer Strasmore
Rob Corddry - Joe Krutel
John David Washington - Ricky Jerret
Omar Benson Miller - Charles Greane
Donovan W. Carter - Vernon Littlefield
Troy Garity - Jason
Jazmyn Simon - Julie Greane
Anabelle Acosta - Annabella
Hakim Callender - Marcus
Arielle Kebbel - Tracy Legette



Format : Matroska
Format version : Version 4 / Version 2
File size : 727 MiB
Duration : 31 min 59 s
Overall bit rate mode : Variable
Overall bit rate : 3 177 kb/s
Encoded date : UTC 2017-09-11 09:52:05

Video
ID : 1
Format : AVC
Format/INFO : Advanced Video Codec
Format profile : High@L3.1
Format settings, CABAC : Yes
Format settings, RefFrames : 5 frames
Codec ID : V_MPEG4/ISO/AVC
Duration : 31 min 59 s
Bit rate mode : Variable
Bit rate : 2 792 kb/s
Maximum bit rate : 4 500 kb/s
Width : 1 280 pixels
Height : 720 pixels
Display aspect ratio : 16:9
Frame rate mode : Constant
Frame rate : 23.976 (24000/1001) FPS
Color space : YUV
Chroma subsampling : 4:2:0
Bit depth : 8 bits
Scan type : Progressive
Bits/(Pixel*Frame) : 0.126
Stream size : 639 MiB (88%)
Color range : Limited
Color primaries : BT.709
Transfer characteristics : BT.709
Matrix coefficients : BT.709

Audio
ID : 2
Format : AC-3
Format/INFO : Audio Coding 3
Format settings, Endianness : Big
Codec ID : A_AC3
Duration : 31 min 59 s
Bit rate mode : Constant
Bit rate : 384 kb/s
Channel(s) : 2 channels
Channel positions : Front: L R
Sampling rate : 48.0 kHz
Frame rate : 31.250 FPS (1536 SPF)
Bit depth : 16 bits
Compression mode : Lossy
Stream size : 87.9 MiB (12%)
Language : Polish
Service kind : Complete Main

====================================================

PODOBNE TORRENTY
Ballers S03E04-05 [720p.AMZN.WEB-DL.H.264.AC3] [Lektor PL] Ballers S03E03 - In the Teeth [720p.AMZN.WEB-DL.H.264.AC3] [Lektor PL] Ballers S03E09 - Crackback [720p.AMZN.WEB-DL.H.264.AC3] [Lektor PL] Ballers S03E10 - Yay Arena [720p.AMZN.WEB-DL.H.264.AC3] [Lektor PL] Ballers S03E01 - Seeds of Expansion [720p.AMZN.WEB-DL.H.264.AC3] [Lektor PL] Ballers S03E02 - Bull Rush [720p.AMZN.WEB-DL.H.264.AC3] [Lektor PL]
Szczegóły torrenta
TRACKER
Tracker Podstawowy: http://agusiq-torrents.pl:6969/announce

Multitrackery:

http://agusiq-torrents.pl:6969/announce
http://tracker.filetracker.pl:8089/announce
http://tracker.torrentyorg.pl/announce
udp://tracker.publicbt.com/announce
udp://9.rarbg.com:2710/announce
udp://t1.pow7.com/announce
udp://tracker.torrentbay.to:6969/announce
udp://tracker.prq.to/announce
udp://tracker.istole.it:80/announce
udp://exodus.desync.com:6969/announce
udp://tracker.leechers-paradise.org:6969/announce
udp://9.rarbg.me:2740/announce
http://retracker.omsk.ru:2710/announce
udp://shadowshq.eddie4.nl:6969/announce
http://mgtracker.org:2710/announce
http://tracker.tfile.me/announce
udp://tracker.glotorrents.com:6969/announce
udp://eddie4.nl:6969/announce
udp://torrent.gresille.org:80/announce
udp://poloniumsurfer.tk:6969/announce
udp://tracker.pomf.se:80/announce
udp://sugoi.pomf.se:80/announce
udp://tracker.openbittorrent.com:80/announce
udp://10.rarbg.com/announce

UAKTUALNIENIE
14/09/2017 07:58:53 (Jeśeli nie widac seeda kliknij na [uaktualnij] by odswieżyć statystyki).
[Lub sprawdź programem do pobierania torrentów, ponieważ niektóre trackery nie wyświetlają statystyk]
1 file
 
KOMENTARZE


Brak komentarzy...

DODAJ KOMENTARZ

Zaloguj się aby dodawać komentarze !!!



Wstecz