FileTracker.PL - Darmowe polskie torrenty

Witaj drogi Towarzyszu!, jeżeli widzisz ten dymek to znaczy że nie jesteś zarejestrowany/zalogowany. Kliknij by się zarejestrować . Rejestracja zajmie mniej niż 30 sekund, a dzięki niej zyskasz możliwość pobierania, komentowania oraz dodawania torrentów !
User:  Hasło:     






Kategorie


Najczęściej pobierane w Listopadzie


Detale Torrenta


Fear the Walking Dead S03E09-10 [1080p.WEB-DL.H.264.AC3] [Lektor PL]

S: 37L: 53P: 148
Dodał: Lukarusi Tracker:
Kondycja:Dodane:2017-09-12 11:21:00
Kategoria:Seriale  »  Horror / ThrillerRozmiar:3.39 GB
Język:Lektor PL  Lektor PLPobrali:POBRALI PLIK
Obserwuj:OBSERWUJ TORRENTAStaty:UAKTUALNIJ TRACKER
Download: Pobierz TorrentRaport:RAPORTUJ TORRENTA


produkcja: USA
gatunek: Horror, Dramat
reżyseria: Andrew Bernstein, Alex Garcia Lopez, Daniel Stamm
scenariusz: Robert Kirkman, Dave Erickson
zdjęcia: Scott Peck
muzyka: Paul Haslinger
czas trwania: ok. 43-44 min.



Spin-off serialu "The Walking Dead", opowiadający o początkach epidemii zombie w Los Angeles.



Kim Dickens - Madison Clark
Cliff Curtis - Travis Manawa
Frank Dillane - Nick Clark
Alycia Debnam-Carey - Alicia Clark
Mercedes Mason - Ofelia Salazar
Colman Domingo - Victor Strand
Danay Garcia - Luciana Galvez
Daniel Sharman - Troy Otto
Michael William Freeman - Blake Sarno



Format : Matroska
Format version : Version 4 / Version 2
File size : 1.70 GiB
Duration : 44 min 3 s
Overall bit rate : 5 518 kb/s
Encoded date : UTC 2017-09-12 08:45:38

Video
ID : 1
Format : AVC
Format/INFO : Advanced Video Codec
Format profile : High@L4
Format settings, CABAC : Yes
Format settings, RefFrames : 4 frames
Codec ID : V_MPEG4/ISO/AVC
Duration : 44 min 3 s
Bit rate : 5 132 kb/s
Width : 1 908 pixels
Height : 1 068 pixels
Display aspect ratio : 16:9
Frame rate mode : Constant
Frame rate : 23.976 (24000/1001) FPS
Color space : YUV
Chroma subsampling : 4:2:0
Bit depth : 8 bits
Scan type : Progressive
Bits/(Pixel*Frame) : 0.105
Stream size : 1.58 GiB (93%)
Color range : Limited
Color primaries : BT.709
Transfer characteristics : BT.709
Matrix coefficients : BT.709

Audio
ID : 2
Format : AC-3
Format/INFO : Audio Coding 3
Format settings, Endianness : Big
Codec ID : A_AC3
Duration : 44 min 3 s
Bit rate mode : Constant
Bit rate : 384 kb/s
Channel(s) : 2 channels
Channel positions : Front: L R
Sampling rate : 48.0 kHz
Frame rate : 31.250 FPS (1536 SPF)
Bit depth : 16 bits
Compression mode : Lossy
Stream size : 121 MiB (7%)
Language : Polish
Service kind : Complete Main

====================================================

PODOBNE TORRENTY
Fear The Walking Dead [S03E09-E10] [480p] [WEB-DL] [AC3] [XviD-Ralf] [Lektor PL] Fear The Walking Dead [S03E09-E10] [HDTV] [x264-SVA] [ENG] Fear The Walking Dead [S03E09-E10] [720p] [HDTV] [x264-AVS] [ENG] Fear the Walking Dead - Sezon 1 [1080p.WEB-DL.H.264.AC3] [Lektor PL] Fear the Walking Dead S02E01-03 [1080p.WEB-DL.H.264.AC3] [Lektor PL] Fear the Walking Dead S02E14-15 [1080p.WEB-DL.H.264.AC3] [Lektor PL]
Szczegóły torrenta
TRACKER
Tracker Podstawowy: http://agusiq-torrents.pl:6969/announce

Multitrackery:

http://agusiq-torrents.pl:6969/announce
http://tracker.filetracker.pl:8089/announce
http://tracker.torrentyorg.pl/announce
udp://tracker.publicbt.com/announce
udp://9.rarbg.com:2710/announce
udp://t1.pow7.com/announce
udp://tracker.torrentbay.to:6969/announce
udp://tracker.prq.to/announce
udp://tracker.istole.it:80/announce
udp://exodus.desync.com:6969/announce
udp://tracker.leechers-paradise.org:6969/announce
udp://9.rarbg.me:2740/announce
http://retracker.omsk.ru:2710/announce
udp://shadowshq.eddie4.nl:6969/announce
http://mgtracker.org:2710/announce
http://tracker.tfile.me/announce
udp://tracker.glotorrents.com:6969/announce
udp://eddie4.nl:6969/announce
udp://torrent.gresille.org:80/announce
udp://poloniumsurfer.tk:6969/announce
udp://tracker.pomf.se:80/announce
udp://sugoi.pomf.se:80/announce
udp://tracker.openbittorrent.com:80/announce
udp://10.rarbg.com/announce

UAKTUALNIENIE
12/09/2017 17:57:24 (Jeśeli nie widac seeda kliknij na [uaktualnij] by odswieżyć statystyki).
[Lub sprawdź programem do pobierania torrentów, ponieważ niektóre trackery nie wyświetlają statystyk]
2 pliki
 
KOMENTARZE


Brak komentarzy...

DODAJ KOMENTARZ

Zaloguj się aby dodawać komentarze !!!



Wstecz