FileTracker.PL - Darmowe polskie torrenty

Witaj drogi Towarzyszu!, jeżeli widzisz ten dymek to znaczy że nie jesteś zarejestrowany/zalogowany. Kliknij by się zarejestrować . Rejestracja zajmie mniej niż 30 sekund, a dzięki niej zyskasz możliwość pobierania, komentowania oraz dodawania torrentów !
User:  Hasło:     






Kategorie


Najczęściej pobierane w Grudniu


Remonty i Wykończenia wnętrz-opolskie-dolnośląskie

Remonty i Wykończenia wnętrz-opolskie-dolnośląskie

Detale Torrenta


Mroczny Rycerz: Trylogia - The Dark Knight: Trilogy (2005-2012) [IMAX] [1080p.CEE.Blu-ray.VC-1/AVC.TrueHD/DTS-HD.MA-gix] [Lektor i Napisy PL] [AT-Team]

S: 11L: 26P: 60
Dodał: ~$gixerk9~ Tracker:
Kondycja:Dodane:2016-04-12 15:21:05
Kategoria:Filmy X264 / H264  »  AkcjaRozmiar:155.21 GB
Język:Lektor PL  Lektor PL------------------
Obserwuj:OBSERWUJ TORRENTAStaty:UAKTUALNIJ TRACKER
Download: Pobierz TorrentRaport:RAPORTUJ TORRENTA
Mroczny Rycerz: Trylogia - The Dark Knight: Trilogy (2005-2012)

****************************************
Batman - Początek - Batman Begins (2005)
****************************************


reżyseria: Christopher Nolan
scenariusz: Christopher Nolan, David S. Goyer
gatunek: Akcja, Sci-Fi
produkcja: USA, Wielka Brytania
premiera: 29 lipca 2005 (Polska) 10 czerwca 2005 (świat)



Christian Bale - Bruce Wayne / Batman
Michael Caine - Alfred J. Pennyworth
Liam Neeson - Henri Ducard / Ra's Al Ghul
Gary Oldman - Sierżant James Gordon
Katie Holmes - Rachel Dawes
Morgan Freeman - Lucius Fox
Cillian Murphy - Dr Jonathan Crane / Strach na Wróble
Tom Wilkinson - Carmine Falcone



"Batman Początek", dzieło cenionego reżysera Christophera Nolana, odkrywa tajemnicę narodzin legendarnego Mrocznego Rycerza.
Po tragicznej śmierci rodziców, rozczarowany życiem spadkobierca fortuny, Bruce Wayne (Christian Bale), podróżuje po świecie, szukając środków do walki z niesprawiedliwością po to, aby obrócić strach przeciw tym, którzy go sieją. Z pomocą zaufanego lokaja Alfreda (Michael Caine), detektywa Jima Gordona (Gary Oldman) oraz swego sprzymierzeńca Luciusa Foxa (Morgan Freeman) Wayne powraca do Gotham City, aby powołać do życia swoje alter-ego: Batmana, zamaskowanego wojownika, który posługuje się siłą, intelektem i zaawansowaną bronią, aby zwalczać złowrogie siły, które zagrażają miastu.












DISC INFO:

Disc Title: BATMAN_BEGINS_GIX
Disc Size: 36 964 722 933 bytes
Protection: AACS
BD-Java: Yes
BDINFO: 0.5.8

PLAYLIST REPORT:

Name: 00100.MPLS
Length: 2:20:02.852 (h:m:s.ms)
Size: 25 424 381 952 bytes
Total Bitrate: 24,21 Mbps

(*) Indicates included stream hidden by this playlist.

VIDEO:

Codec Bitrate Description
----- ------- -----------
VC-1 Video 13692 kbps 1080p / 23,976 fps / 16:9 / Advanced Profile 3
* VC-1 Video 634 kbps 480p / 23,976 fps / 4:3 / Advanced Profile 2

AUDIO:

Codec Language Bitrate Description
----- -------- ------- -----------
Dolby Digital Audio English 640 kbps 5.1 / 48 kHz / 640 kbps / DN -4dB
Dolby TrueHD Audio English 1551 kbps 5.1 / 48 kHz / 1551 kbps / 16-bit (AC3 Embedded: 5.1 / 48 kHz / 640 kbps / DN -4dB)
Dolby Digital Audio Czech 640 kbps 5.1 / 48 kHz / 640 kbps / DN -4dB
Dolby Digital Audio Hungarian 640 kbps 5.1 / 48 kHz / 640 kbps / DN -4dB
Dolby Digital Audio Polish 640 kbps 5.1 / 48 kHz / 640 kbps / DN -4dB
Dolby Digital Audio Russian 640 kbps 5.1 / 48 kHz / 640 kbps / DN -4dB
Dolby Digital Audio Thai 640 kbps 5.1 / 48 kHz / 640 kbps / DN -4dB
Dolby Digital Audio Turkish 640 kbps 5.1 / 48 kHz / 640 kbps / DN -4dB
* Dolby Digital Plus Audio English 192 kbps 2.0 / 48 kHz / 192 kbps

SUBTITLES:

Codec Language Bitrate Description
----- -------- ------- -----------
Presentation Graphics English 27,976 kbps
Presentation Graphics Chinese 22,518 kbps
Presentation Graphics Arabic 14,186 kbps
Presentation Graphics Indonesian 26,045 kbps
Presentation Graphics Bulgarian 21,917 kbps
Presentation Graphics Croatian 19,650 kbps
Presentation Graphics Czech 24,204 kbps
Presentation Graphics Estonian 23,297 kbps
Presentation Graphics Greek 22,519 kbps
Presentation Graphics Hebrew 19,854 kbps
Presentation Graphics Hungarian 20,884 kbps
Presentation Graphics Icelandic 24,853 kbps
Presentation Graphics Latvian 22,046 kbps
Presentation Graphics Lithuanian 27,095 kbps
Presentation Graphics Polish 24,293 kbps
Presentation Graphics Romanian 23,797 kbps
Presentation Graphics Russian 25,267 kbps
Presentation Graphics Serbian 24,197 kbps
Presentation Graphics Slovenian 19,204 kbps
Presentation Graphics Thai 24,681 kbps
Presentation Graphics Turkish 25,512 kbps
Presentation Graphics Czech 0,098 kbps
Presentation Graphics Hungarian 0,086 kbps
Presentation Graphics Turkish 0,122 kbps
Presentation Graphics English 37,428 kbps
* Presentation Graphics Chinese 30,336 kbps

FILES:

Name Time In Length Size Total Bitrate
---- ------- ------ ---- -------------
00000.M2TS 0:00:00.000 2:20:02.852 25 424 381 952 24 205



***************************************
Mroczny Rycerz - The Dark Knight (2008)
***************************************



reżyseria: Christopher Nolan
scenariusz: Christopher Nolan, Jonathan Nolan
gatunek: Akcja, Sci-Fi
produkcja: USA, Wielka Brytania
premiera: 8 sierpnia 2008 (Polska) 14 lipca 2008 (świat)



Christian Bale - Bruce Wayne / Batman
Heath Ledger - Joker
Aaron Eckhart - Harvey Dent / Dwie Twarze
Michael Caine - Alfred J. Pennyworth
Maggie Gyllenhaal - Rachel Dawes
Gary Oldman - Porucznik James Gordon
Morgan Freeman - Lucius Fox
Monique Gabriela Curnen - Detektyw Anna Ramirez



Kontynuacja filmu Batman: Początek, "Mroczny Rycerz", to kolejne wspólne dzieło reżysera Christophera Nolana i gwiazdora Christiana Bale'a, który ponownie wciela się w postać Batmana / Bruce'a Wayne'a toczącego zażartą wojnę ze światem przestępczym. Batmanowi udaje się na dobre rozbić kryminalne podziemie Gotham z pomocą porucznika Jima Gordona i Prokuratora Okręgowego Harveya Denta. Ich współpraca okazuje się niezwykle skuteczna, ale szybko trzej mężczyźni stają się celem nowego geniusza zbrodni, Jokera, którego celem jest wprowadzenie w Gotham anarchii i zmuszenie Batmana, by ten przeszedł na stronę zła, przestał być bohaterem, a stał się złoczyńcą.












DISC INFO:

Disc Title: THE_DARK_KNIGHT_GIX
Disc Size: 43 898 469 245 bytes
Protection: AACS
BD-Java: Yes
BDINFO: 0.5.8

PLAYLIST REPORT:

Name: 00100.MPLS
Length: 2:32:13.332 (h:m:s.ms)
Size: 37 747 599 360 bytes
Total Bitrate: 33,06 Mbps

VIDEO:

Codec Bitrate Description
----- ------- -----------
VC-1 Video 23999 kbps 1080p / 23,976 fps / 16:9 / Advanced Profile 3

AUDIO:

Codec Language Bitrate Description
----- -------- ------- -----------
Dolby Digital Audio English 640 kbps 5.1 / 48 kHz / 640 kbps
Dolby TrueHD Audio English 1505 kbps 5.1 / 48 kHz / 1505 kbps / 16-bit (AC3 Embedded: 5.1 / 48 kHz / 640 kbps)
Dolby Digital Audio Czech 448 kbps 5.1 / 48 kHz / 448 kbps
Dolby Digital Audio Hungarian 448 kbps 5.1 / 48 kHz / 448 kbps
Dolby Digital Audio Polish 448 kbps 5.1 / 48 kHz / 448 kbps
Dolby Digital Audio Russian 448 kbps 5.1 / 48 kHz / 448 kbps
Dolby Digital Audio Thai 448 kbps 5.1 / 48 kHz / 448 kbps
Dolby Digital Audio Turkish 448 kbps 5.1 / 48 kHz / 448 kbps
Dolby Digital Audio Ukrainian 448 kbps 5.1 / 48 kHz / 448 kbps

SUBTITLES:

Codec Language Bitrate Description
----- -------- ------- -----------
Presentation Graphics English 35,739 kbps
Presentation Graphics Chinese 29,328 kbps
Presentation Graphics Arabic 16,355 kbps
Presentation Graphics Indonesian 33,683 kbps
Presentation Graphics Bulgarian 32,518 kbps
Presentation Graphics Croatian 27,453 kbps
Presentation Graphics Czech 27,643 kbps
Presentation Graphics Estonian 29,153 kbps
Presentation Graphics Greek 33,165 kbps
Presentation Graphics Hebrew 24,934 kbps
Presentation Graphics Hungarian 26,078 kbps
Presentation Graphics Icelandic 29,795 kbps
Presentation Graphics Latvian 27,067 kbps
Presentation Graphics Lithuanian 34,052 kbps
Presentation Graphics Polish 31,389 kbps
Presentation Graphics Portuguese 31,574 kbps
Presentation Graphics Romanian 29,336 kbps
Presentation Graphics Russian 30,504 kbps
Presentation Graphics Serbian 29,300 kbps
Presentation Graphics Slovenian 26,447 kbps
Presentation Graphics Thai 29,700 kbps
Presentation Graphics Turkish 32,385 kbps
Presentation Graphics Ukrainian 28,636 kbps
Presentation Graphics Czech 0,259 kbps
Presentation Graphics Hungarian 0,258 kbps
Presentation Graphics Turkish 0,253 kbps

FILES:

Name Time In Length Size Total Bitrate
---- ------- ------ ---- -------------
00011.M2TS 0:00:00.000 2:32:13.332 37 747 599 360 33 064



******************************************************
Mroczny Rycerz powstaje - The Dark Knight Rises (2012)
******************************************************



reżyseria: Christopher Nolan
scenariusz: Jonathan Nolan, Christopher Nolan
gatunek: Akcja, Sci-Fi
produkcja: USA, Wielka Brytania
premiera: 27 lipca 2012 (Polska) 16 lipca 2012 (świat)



Christian Bale - Bruce Wayne / Batman
Gary Oldman - Komisarz James Gordon
Tom Hardy - Bane
Joseph Gordon-Levitt - John Blake
Anne Hathaway - Selina Kyle / Kobieta-Kot
Marion Cotillard - Miranda Tate
Morgan Freeman - Lucius Fox
Michael Caine - Alfred J. Pennyworth



Spektakularne zakończenie trylogii! "Mroczny Rycerz Powstaje" ponownie jednoczy wybitnego reżysera Christophera Nolana i genialnego aktora Christiana Bale'a. Osiem lat temu, po tym jak przyjmuje na siebie winę za śmierć Harveya Denta, okryty hańbą Batman (Christian Bale) znika w tajemniczych okolicznościach. Wszystko się jednak zmienia, gdy na horyzoncie pojawia się sprytna kocia włamywaczka (Anne Hathaway) i bezwzględny szaleniec - Bane (Tom Hardy). Terrorystyczne zamiary zamaskowanego Bane'a zmuszają Bruce'a do powrotu z wygnania i podjęcia ostatecznej walki o przetrwanie Gotham City… i Batmana.












DISC INFO:

Disc Title: DARK_KNIGHT_RISES_GIX
Disc Size: 43 125 762 982 bytes
Protection: AACS
BD-Java: Yes
BDINFO: 0.5.8

PLAYLIST REPORT:

Name: 00100.MPLS
Length: 2:44:32.904 (h:m:s.ms)
Size: 41 549 684 736 bytes
Total Bitrate: 33,67 Mbps

VIDEO:

Codec Bitrate Description
----- ------- -----------
MPEG-4 AVC Video 23977 kbps 1080p / 23,976 fps / 16:9 / High Profile 4.1

AUDIO:

Codec Language Bitrate Description
----- -------- ------- -----------
DTS-HD Master Audio English 4018 kbps 5.1 / 48 kHz / 4018 kbps / 24-bit (DTS Core: 5.1 / 48 kHz / 1509 kbps / 24-bit)
Dolby Digital Audio English 192 kbps 2.0 / 48 kHz / 192 kbps / DN -4dB / Dolby Surround
Dolby Digital Audio Chinese 448 kbps 5.1 / 48 kHz / 448 kbps / DN -4dB
Dolby Digital Audio Czech 448 kbps 5.1 / 48 kHz / 448 kbps / DN -4dB
Dolby Digital Audio Hungarian 448 kbps 5.1 / 48 kHz / 448 kbps / DN -4dB
Dolby Digital Audio Polish 448 kbps 5.1 / 48 kHz / 448 kbps / DN -4dB
Dolby Digital Audio Russian 448 kbps 5.1 / 48 kHz / 448 kbps / DN -4dB
Dolby Digital Audio Turkish 448 kbps 5.1 / 48 kHz / 448 kbps / DN -4dB
Dolby Digital Audio Ukrainian 448 kbps 5.1 / 48 kHz / 448 kbps / DN -4dB

SUBTITLES:

Codec Language Bitrate Description
----- -------- ------- -----------
Presentation Graphics English 31,596 kbps
Presentation Graphics Arabic 14,794 kbps
Presentation Graphics Bulgarian 26,590 kbps
Presentation Graphics Chinese 23,696 kbps
Presentation Graphics Croatian 24,292 kbps
Presentation Graphics Czech 27,094 kbps
Presentation Graphics Estonian 21,753 kbps
Presentation Graphics Greek 26,881 kbps
Presentation Graphics Hebrew 22,262 kbps
Presentation Graphics Hungarian 25,485 kbps
Presentation Graphics Latvian 20,739 kbps
Presentation Graphics Lithuanian 28,027 kbps
Presentation Graphics Polish 24,801 kbps
Presentation Graphics Portuguese 29,316 kbps
Presentation Graphics Romanian 27,862 kbps
Presentation Graphics Russian 21,040 kbps
Presentation Graphics Serbian 25,088 kbps
Presentation Graphics Slovenian 21,653 kbps
Presentation Graphics Turkish 27,794 kbps
Presentation Graphics Hungarian 0,010 kbps
Presentation Graphics Czech 0,119 kbps
Presentation Graphics Russian 0,206 kbps
Presentation Graphics Turkish 0,183 kbps

FILES:

Name Time In Length Size Total Bitrate
---- ------- ------ ---- -------------
00020.M2TS 0:00:00.000 2:44:32.904 41 549 684 736 33 668

====================================================

PODOBNE TORRENTY
Mroczny Rycerz: Trylogia - The Dark Knight: Trilogy (2005-2012) [IMAX] [1080p.AC3.BDRip.x264-gix] [Lektor PL] [AT-Team] Mroczny Rycerz Trylogia - The Dark Knight Trylogy *2005-2012*[BDRip.XviD.AC3-Leon 345] [Lektor PL] Mroczny Rycerz powstaje - The Dark Knight Rises (2012) [UHD Blu-ray disc 2160p] [IMAX Edition] [Lektor i Napisy PL] Mroczny Rycerz powstaje / The Dark Knight Rises *2012* (IMAX Edition) [720p]  [BluRay] [x264] [AC3] [Lektor PL] Mroczny Rycerz - The Dark Knight *2008* (48FPS) [1080p.TrueHD 5.1.AC3.BluRay.x264-LEON 345] [Lektor i napisy PL] Mroczny Rycerz Powstaje - The Dark Knight Rises *2012* [1080p.CEE.Blu-ray.AVC.DTS-HD.MA.5.1] [Lektor i Napisy PL]
Szczegóły torrenta
TRACKER
Tracker Podstawowy: http://tracker.aletorrenty.pl:2710/announce

Multitrackery:

http://tracker.aletorrenty.pl:2710/announce
http://www.tlv.cc:7777/announce
udp://tracker.aletorrenty.pl:2710/announce
udp://open.demonii.com:1337/announce
udp://9.rarbg.com:2710/announce
http://tracker.torrenty.org:6969/announce
http://tracker.filetracker.pl:8089/announce
http://tracker.flashtorrents.org:6969/announce
udp://tracker.glotorrents.com:6969/announce
http://retracker.omsk.ru:2710/announce
udp://eddie4.nl:6969/announce
udp://coppersurfer.tk:6969/announce

UAKTUALNIENIE
12/12/2019 21:19:54 (Jeśeli nie widac seeda kliknij na [uaktualnij] by odswieżyć statystyki).
[Lub sprawdź programem do pobierania torrentów, ponieważ niektóre trackery nie wyświetlają statystyk]
2625 pliki
 
KOMENTARZE


dominikk2602/12/2019 23.47.44
Prosze o seeds
Status użytkownika:   02/12/2019 23.47.44  TOP

DODAJ KOMENTARZ

Zaloguj się aby dodawać komentarze !!!



Wstecz








WRÓĆ NA GÓRĘ